<?xml version="1.0" standalone="no"?>
<!DOCTYPE svg PUBLIC "-//W3C//DTD SVG 1.1//EN" "http://www.w3.org/Graphics/SVG/1.1/DTD/svg11.dtd" >
<svg xmlns="http://www.w3.org/2000/svg">
<metadata></metadata>
<defs>
<font id="dejavu_sansbold" horiz-adv-x="1716" >
<font-face units-per-em="2048" ascent="1556" descent="-492" />
<missing-glyph horiz-adv-x="713" />
<glyph unicode="&#x627;&#x653;" horiz-adv-x="702" d="M-40 1647v170l166 123q106 -89 153 -99q78 -17 138 -18q71 0 130 21q117 41 195 112v-170q-61 -52 -180 -88q-84 -26 -151 -27q-99 0 -152 22q-58 24 -128 77zM172 0v1556h358v-1556h-358z" />
<glyph unicode="&#x627;&#x654;" horiz-adv-x="702" d="M154 1845q3 106 56 149q48 40 179 40q66 0 128 -22v-125q-70 20 -128 20q-42 0 -61 -9q-29 -14 -29 -62q0 -52 63 -68q24 -6 54 -1l109 20v-129l-363 -77v127l78 18q-54 12 -70 45q-16 34 -16 74zM172 0v1556h358v-1556h-358z" />
<glyph unicode="&#x648;&#x654;" horiz-adv-x="1273" d="M-85 -244q239 -8 411 19q178 29 261 82q101 64 127 143q-32 0 -131 2q-223 5 -316 86q-98 84 -98 216q0 52 8 96q28 161 173 217q109 42 262 43q220 0 325 -57t156 -209q27 -82 27 -238q0 -204 -89 -348q-93 -151 -313 -225q-246 -83 -803 -83v256zM428 1045 q3 106 56 149q48 40 179 40q66 0 128 -22v-125q-70 20 -128 20q-42 0 -61 -9q-29 -14 -29 -62q0 -52 63 -68q24 -6 54 -1l109 20v-129l-363 -77v127l78 18q-54 12 -70 45q-16 34 -16 74zM527 340q0 -45 35 -64q36 -19 70 -19h122q0 39 -5 68q-6 41 -53 80q-29 24 -68 23 q-42 -1 -71 -30q-30 -30 -30 -58z" />
<glyph unicode="&#x627;&#x655;" horiz-adv-x="702" d="M156 -236q3 106 56 149q48 40 179 40q66 0 128 -22v-125q-70 20 -128 20q-42 0 -61 -9q-29 -14 -29 -62q0 -52 63 -68q24 -6 54 -1l109 20v-129l-363 -77v127l78 18q-54 12 -70 45q-16 34 -16 74zM172 0v1556h358v-1556h-358z" />
<glyph unicode="&#x64a;&#x654;" horiz-adv-x="1877" d="M130 175q-1 138 63 230h358q-70 -101 -65 -230q3 -78 130 -121q51 -17 176 -17q147 0 280 35q247 66 249 160q1 96 -123 138q-179 61 -180 61q-73 32 -125 78q-64 57 -65 172q-2 168 190 224q140 41 282 41q173 0 278 -46q163 -71 190 -253h-318q-22 69 -137 68 q-91 -1 -114 -30q-26 -33 -25 -43q3 -36 125 -66q216 -53 305 -165q76 -96 77 -195q1 -75 -41 -151q-89 -157 -492 -243q-197 -41 -336 -41q-305 -1 -389 29q-292 106 -293 365zM353 1045q3 106 56 149q48 40 179 40q66 0 128 -22v-125q-70 20 -128 20q-42 0 -61 -9 q-29 -14 -29 -62q0 -52 63 -68q24 -6 54 -1l109 20v-129l-363 -77v127l78 18q-54 12 -70 45q-16 34 -16 74z" />
<glyph unicode="&#xfb00;" horiz-adv-x="1659" d="M39 864v256h178v78q0 183 102 270q102 88 316 88h274v-235h-198q-76 0 -106 -27q-30 -28 -30 -96v-78h410v78q0 183 102 270q102 88 316 88h274v-235h-198q-76 0 -106 -27q-30 -28 -30 -96v-78h306v-256h-306v-864h-358v864h-410v-864h-358v864h-178z" />
<glyph unicode="fi" horiz-adv-x="1518" d="M43 864v256h176v78q0 183 102 270.5t316 87.5h274v-235h-198q-75 0 -104 -27.5t-29 -95.5v-78h766v-1120h-361v864h-405v-864h-361v864h-176zM985 1264v292h361v-292h-361z" />
<glyph unicode="fl" horiz-adv-x="1518" d="M39 864v256h178v78q0 183 102 270.5t316 87.5h711v-1556h-361v1321h-274q-76 0 -106 -27.5t-30 -95.5v-78h281v-256h-281v-864h-358v864h-178z" />
<glyph unicode="&#xfb03;" horiz-adv-x="2284" d="M39 864v256h178v78q0 183 102 270q102 88 316 88h274v-235h-198q-76 0 -106 -27q-30 -28 -30 -96v-78h410v78q0 183 102 270q102 88 316 88h274v-235h-198q-75 0 -104 -27q-29 -28 -29 -96v-78h766v-1120h-361v864h-405v-864h-3h-358v864h-410v-864h-358v864h-178z M1751 1264v292h361v-292h-361z" />
<glyph unicode="&#xfb04;" horiz-adv-x="2286" d="M39 864v256h178v78q0 183 102 270q102 88 316 88h274v-235h-198q-76 0 -106 -27q-30 -28 -30 -96v-78h410v78q0 183 102 270q102 88 316 88h711v-1556h-361v1321h-274q-76 0 -106 -27q-30 -28 -30 -96v-78h281v-256h-281v-864h-358v864h-410v-864h-358v864h-178z" />
<glyph unicode="&#x20;&#x64b;" horiz-adv-x="700" arabic-form="isolated" d="M58 1210v140l584 130v-140zM58 1420v140l584 130v-140z" />
<glyph unicode="&#x640;&#x64b;" horiz-adv-x="700" arabic-form="medial" d="M-20 0v256h740v-256h-740zM58 1210v140l584 130v-140zM58 1420v140l584 130v-140z" />
<glyph unicode="&#x20;&#x64c;" horiz-adv-x="700" arabic-form="isolated" d="M58 1518h140q0 -97 12 -123q21 -45 37 -45q55 0 98 59l30 43q-16 4 -52 28q-84 58 -84 149q0 100 66 142q55 35 110 34q75 -2 129 -52q59 -56 59 -136q0 -45 -18 -75l30 -2l27 -2v-130q-51 0 -67 2l-49 5q-18 -47 -94 -120q-86 -85 -189 -85q-117 0 -173 154 q-12 33 -12 154zM379 1620q0 -25 33 -46q14 -8 26 -12q8 10 13 20q10 23 10 36q0 11 -10 29q-8 14 -32 14q-11 0 -22 -9q-18 -13 -18 -32z" />
<glyph unicode="&#x20;&#x64d;" horiz-adv-x="700" arabic-form="isolated" d="M58 -140l584 130v-140l-584 -130v140zM58 -350l584 130v-140l-584 -130v140z" />
<glyph unicode="&#x20;&#x64e;" horiz-adv-x="700" arabic-form="isolated" d="M58 1210v140l584 130v-140z" />
<glyph unicode="&#x640;&#x64e;" horiz-adv-x="700" arabic-form="medial" d="M-20 0v256h740v-256h-740zM58 1210v140l584 130v-140z" />
<glyph unicode="&#x20;&#x64f;" horiz-adv-x="700" arabic-form="isolated" d="M58 1209v140q140 0 251 79q12 8 47 39q-21 4 -33 13q-84 56 -84 149q0 100 66 142q55 35 110 34q75 -2 129 -52q59 -56 59 -136q0 -45 -18 -75l30 -2l27 -2v-130q-35 0 -67 2q-42 2 -65 5q-45 -52 -102 -92q-176 -123 -350 -114zM379 1620q0 -24 33 -46q10 -7 29 -8 q6 7 10 16q10 23 10 36q0 11 -10 29q-8 14 -32 14q-11 0 -22 -9q-18 -13 -18 -32z" />
<glyph unicode="&#x640;&#x64f;" horiz-adv-x="700" arabic-form="medial" d="M-20 0v256h740v-256h-740zM58 1209v140q140 0 251 79q12 8 47 39q-21 4 -33 13q-84 56 -84 149q0 100 66 142q55 35 110 34q75 -2 129 -52q59 -56 59 -136q0 -45 -18 -75l30 -2l27 -2v-130q-35 0 -67 2q-42 2 -65 5q-45 -52 -102 -92q-176 -123 -350 -114zM379 1620 q0 -24 33 -46q10 -7 29 -8q6 7 10 16q10 23 10 36q0 11 -10 29q-8 14 -32 14q-11 0 -22 -9q-18 -13 -18 -32z" />
<glyph unicode="&#x20;&#x650;" horiz-adv-x="700" arabic-form="isolated" d="M58 -140l584 130v-140l-584 -130v140z" />
<glyph unicode="&#x640;&#x650;" horiz-adv-x="700" arabic-form="medial" d="M-20 0v256h740v-256h-740zM58 -140l584 130v-140l-584 -130v140z" />
<glyph unicode="&#x20;&#x651;" horiz-adv-x="700" arabic-form="isolated" d="M18 1451q0 109 16 207h132q-13 -125 -11 -181q1 -49 25 -97q13 -27 49 -5q46 26 50 173q2 82 2 171h136q-1 -36 3 -90q11 -175 69 -174q60 1 60 153q0 115 -13 172h133q15 -73 12 -189q-4 -133 -27 -187q-36 -85 -147 -99q-71 -9 -102 24q-27 30 -39 83q-17 -81 -45 -116 q-57 -68 -129 -69q-96 -2 -140 63q-34 50 -34 161z" />
<glyph unicode="&#x640;&#x651;" horiz-adv-x="700" arabic-form="medial" d="M-20 0v256h740v-256h-740zM18 1451q0 109 16 207h132q-13 -125 -11 -181q1 -49 25 -97q13 -27 49 -5q46 26 50 173q2 82 2 171h136q-1 -36 3 -90q11 -175 69 -174q60 1 60 153q0 115 -13 172h133q15 -73 12 -189q-4 -133 -27 -187q-36 -85 -147 -99q-71 -9 -102 24 q-27 30 -39 83q-17 -81 -45 -116q-57 -68 -129 -69q-96 -2 -140 63q-34 50 -34 161z" />
<glyph unicode="&#x20;&#x652;" horiz-adv-x="700" arabic-form="isolated" d="M74 1524q0 115 79.5 194.5t194.5 79.5t194.5 -79.5t79.5 -194.5t-79.5 -195t-194.5 -80t-194.5 80t-79.5 195zM239 1524q0 -47 31 -78.5t78 -31.5q46 0 77.5 32t31.5 78q0 45 -31.5 77t-77.5 32q-47 0 -78 -31.5t-31 -77.5z" />
<glyph unicode="&#x640;&#x652;" horiz-adv-x="700" arabic-form="medial" d="M-20 0v256h740v-256h-740zM74 1524q0 115 79.5 194.5t194.5 79.5t194.5 -79.5t79.5 -194.5t-79.5 -195t-194.5 -80t-194.5 80t-79.5 195zM239 1524q0 -47 31 -78.5t78 -31.5q46 0 77.5 32t31.5 78q0 45 -31.5 77t-77.5 32q-47 0 -78 -31.5t-31 -77.5z" />
<glyph unicode="&#xfedf;&#xfe82;" horiz-adv-x="1525" arabic-form="isolated" d="M-126 1497v170l166 123q106 -89 153 -99q78 -17 138 -18q71 0 130 21q117 41 195 112v-170q-61 -52 -180 -88q-84 -26 -151 -27q-99 0 -152 22q-58 24 -128 77zM84 1410h362l426 -959q29 43 49 98q37 137 37 321v686h358v-722q0 -303 -139 -518q-59 -91 -132 -156 q-220 -190 -646 -190q-149 0 -255 42v244q104 -37 256 -36q106 1 185 45z" />
<glyph unicode="&#xfee0;&#xfe82;" horiz-adv-x="1555" arabic-form="final" d="M-126 1497v170l166 123q106 -89 153 -99q78 -17 138 -18q71 0 130 21q117 41 195 112v-170q-61 -52 -180 -88q-84 -26 -151 -27q-99 0 -152 22q-58 24 -128 77zM84 1410h362l426 -959q29 43 49 98q37 137 37 321v686h358v-1101q0 -106 49 -155q44 -44 112 -44h98v-256 h-357q-114 0 -168 63q-37 42 -45 68q-207 -161 -606 -161q-149 0 -255 42v244q104 -37 256 -36q106 1 185 45z" />
<glyph unicode="&#xfedf;&#xfe84;" horiz-adv-x="1525" arabic-form="isolated" d="M68 1745q3 106 56 149q48 40 179 40q66 0 128 -22v-125q-70 20 -128 20q-42 0 -61 -9q-29 -14 -29 -62q0 -52 63 -68q24 -6 54 -1l109 20v-129l-363 -77v127l78 18q-54 12 -70 45q-16 34 -16 74zM84 1410h362l426 -959q29 43 49 98q37 137 37 321v686h358v-722 q0 -303 -139 -518q-59 -91 -132 -156q-220 -190 -646 -190q-149 0 -255 42v244q104 -37 256 -36q106 1 185 45z" />
<glyph unicode="&#xfee0;&#xfe84;" horiz-adv-x="1555" arabic-form="final" d="M68 1745q3 106 56 149q48 40 179 40q66 0 128 -22v-125q-70 20 -128 20q-42 0 -61 -9q-29 -14 -29 -62q0 -52 63 -68q24 -6 54 -1l109 20v-129l-363 -77v127l78 18q-54 12 -70 45q-16 34 -16 74zM84 1410h362l426 -959q29 43 49 98q37 137 37 321v686h358v-1101 q0 -106 49 -155q44 -44 112 -44h98v-256h-357q-114 0 -168 63q-37 42 -45 68q-207 -161 -606 -161q-149 0 -255 42v244q104 -37 256 -36q106 1 185 45z" />
<glyph unicode="&#xfedf;&#xfe88;" horiz-adv-x="1525" arabic-form="isolated" d="M84 1410h362l426 -959q29 43 49 98q37 137 37 321v686h358v-722q0 -303 -139 -518q-59 -91 -132 -156q-220 -190 -646 -190q-149 0 -255 42v244q104 -37 256 -36q106 1 185 45zM155 -236q3 106 56 149q48 40 179 40q66 0 128 -22v-125q-70 20 -128 20q-42 0 -61 -9 q-29 -14 -29 -62q0 -52 63 -68q24 -6 54 -1l109 20v-129l-363 -77v127l78 18q-54 12 -70 45q-16 34 -16 74z" />
<glyph unicode="&#xfee0;&#xfe88;" horiz-adv-x="1555" arabic-form="final" d="M84 1410h362l426 -959q29 43 49 98q37 137 37 321v686h358v-1101q0 -106 49 -155q44 -44 112 -44h98v-256h-357q-114 0 -168 63q-37 42 -45 68q-207 -161 -606 -161q-149 0 -255 42v244q104 -37 256 -36q106 1 185 45zM155 -236q3 106 56 149q48 40 179 40q66 0 128 -22 v-125q-70 20 -128 20q-42 0 -61 -9q-29 -14 -29 -62q0 -52 63 -68q24 -6 54 -1l109 20v-129l-363 -77v127l78 18q-54 12 -70 45q-16 34 -16 74z" />
<glyph unicode="&#xfedf;&#xfe8e;" horiz-adv-x="1525" arabic-form="isolated" d="M84 1410h362l426 -959q29 43 49 98q37 137 37 321v686h358v-722q0 -303 -139 -518q-59 -91 -132 -156q-220 -190 -646 -190q-149 0 -255 42v244q104 -37 256 -36q106 1 185 45z" />
<glyph unicode="&#xfee0;&#xfe8e;" horiz-adv-x="1555" arabic-form="final" d="M84 1410h362l426 -959q29 43 49 98q37 137 37 321v686h358v-1101q0 -106 49 -155q44 -44 112 -44h98v-256h-357q-114 0 -168 63q-37 42 -45 68q-207 -161 -606 -161q-149 0 -255 42v244q104 -37 256 -36q106 1 185 45z" />
<glyph unicode="&#x64b;&#x651;" horiz-adv-x="0" d="M180 1451q0 109 16 207h132q-13 -125 -11 -181q1 -49 25 -97q13 -27 49 -5q46 26 50 173q2 82 2 171h136q-1 -36 3 -90q11 -175 69 -174q60 1 60 153q0 115 -13 172h133q15 -73 12 -189q-4 -133 -27 -187q-36 -85 -147 -99q-71 -9 -102 24q-27 30 -39 83 q-17 -81 -45 -116q-57 -68 -129 -69q-96 -2 -140 63q-34 50 -34 161zM220 1810v140l584 130v-140zM220 2020v140l584 130v-140z" />
<glyph unicode="&#x64c;&#x651;" horiz-adv-x="0" d="M180 1451q0 109 16 207h132q-13 -125 -11 -181q1 -49 25 -97q13 -27 49 -5q46 26 50 173q2 82 2 171h136q-1 -36 3 -90q11 -175 69 -174q60 1 60 153q0 115 -13 172h133q15 -73 12 -189q-4 -133 -27 -187q-36 -85 -147 -99q-71 -9 -102 24q-27 30 -39 83 q-17 -81 -45 -116q-57 -68 -129 -69q-96 -2 -140 63q-34 50 -34 161zM220 2118h140q0 -97 12 -123q21 -45 37 -45q55 0 98 59l30 43q-16 4 -52 28q-84 58 -84 149q0 100 66 142q55 35 110 34q75 -2 129 -52q59 -56 59 -136q0 -45 -18 -75l30 -2l27 -2v-130q-51 0 -67 2 l-49 5q-18 -47 -94 -120q-86 -85 -189 -85q-117 0 -173 154q-12 33 -12 154zM541 2220q0 -25 33 -46q14 -8 26 -12q8 10 13 20q10 23 10 36q0 11 -10 29q-8 14 -32 14q-11 0 -22 -9q-18 -13 -18 -32z" />
<glyph unicode="&#x64d;&#x651;" horiz-adv-x="0" d="M180 1951q0 109 16 207h132q-13 -125 -11 -181q1 -49 25 -97q13 -27 49 -5q46 26 50 173q2 82 2 171h136q-1 -36 3 -90q11 -175 69 -174q60 1 60 153q0 115 -13 172h133q15 -73 12 -189q-4 -133 -27 -187q-36 -85 -147 -99q-71 -9 -102 24q-27 30 -39 83 q-17 -81 -45 -116q-57 -68 -129 -69q-96 -2 -140 63q-34 50 -34 161zM220 1210v140l584 130v-140zM220 1420v140l584 130v-140z" />
<glyph unicode="&#x64e;&#x651;" horiz-adv-x="0" d="M180 1451q0 109 16 207h132q-13 -125 -11 -181q1 -49 25 -97q13 -27 49 -5q46 26 50 173q2 82 2 171h136q-1 -36 3 -90q11 -175 69 -174q60 1 60 153q0 115 -13 172h133q15 -73 12 -189q-4 -133 -27 -187q-36 -85 -147 -99q-71 -9 -102 24q-27 30 -39 83 q-17 -81 -45 -116q-57 -68 -129 -69q-96 -2 -140 63q-34 50 -34 161zM220 1810v140l584 130v-140z" />
<glyph unicode="&#x64f;&#x651;" horiz-adv-x="0" d="M180 1451q0 109 16 207h132q-13 -125 -11 -181q1 -49 25 -97q13 -27 49 -5q46 26 50 173q2 82 2 171h136q-1 -36 3 -90q11 -175 69 -174q60 1 60 153q0 115 -13 172h133q15 -73 12 -189q-4 -133 -27 -187q-36 -85 -147 -99q-71 -9 -102 24q-27 30 -39 83 q-17 -81 -45 -116q-57 -68 -129 -69q-96 -2 -140 63q-34 50 -34 161zM220 1809v140q140 0 251 79q12 8 47 39q-21 4 -33 13q-84 56 -84 149q0 100 66 142q55 35 110 34q75 -2 129 -52q59 -56 59 -136q0 -45 -18 -75l30 -2l27 -2v-130q-35 0 -67 2q-42 2 -65 5 q-45 -52 -102 -92q-176 -123 -350 -114zM541 2220q0 -24 33 -46q10 -7 29 -8q6 7 10 16q10 23 10 36q0 11 -10 29q-8 14 -32 14q-11 0 -22 -9q-18 -13 -18 -32z" />
<glyph unicode="&#x650;&#x651;" horiz-adv-x="0" d="M180 1751q0 109 16 207h132q-13 -125 -11 -181q1 -49 25 -97q13 -27 49 -5q46 26 50 173q2 82 2 171h136q-1 -36 3 -90q11 -175 69 -174q60 1 60 153q0 115 -13 172h133q15 -73 12 -189q-4 -133 -27 -187q-36 -85 -147 -99q-71 -9 -102 24q-27 30 -39 83 q-17 -81 -45 -116q-57 -68 -129 -69q-96 -2 -140 63q-34 50 -34 161zM220 1210v140l584 130v-140z" />
<glyph unicode="&#x64e;&#x654;" horiz-adv-x="0" d="M220 1710v140l584 130v-140zM315 1495q3 106 56 149q48 40 179 40q66 0 128 -22v-125q-70 20 -128 20q-42 0 -61 -9q-29 -14 -29 -62q0 -52 63 -68q24 -6 54 -1l109 20v-129l-363 -77v127l78 18q-54 12 -70 45q-16 34 -16 74z" />
<glyph unicode="&#x64f;&#x654;" horiz-adv-x="0" d="M220 1709v140q140 0 251 79q12 8 47 39q-21 4 -33 13q-84 56 -84 149q0 100 66 142q55 35 110 34q75 -2 129 -52q59 -56 59 -136q0 -45 -18 -75l30 -2l27 -2v-130q-35 0 -67 2q-42 2 -65 5q-45 -52 -102 -92q-176 -123 -350 -114zM315 1495q3 106 56 149q48 40 179 40 q66 0 128 -22v-125q-70 20 -128 20q-42 0 -61 -9q-29 -14 -29 -62q0 -52 63 -68q24 -6 54 -1l109 20v-129l-363 -77v127l78 18q-54 12 -70 45q-16 34 -16 74zM541 2120q0 -24 33 -46q10 -7 29 -8q6 7 10 16q10 23 10 36q0 11 -10 29q-8 14 -32 14q-11 0 -22 -9 q-18 -13 -18 -32z" />
<glyph unicode="&#x66e;" horiz-adv-x="769" d="M-20 0v256h98q68 0 112 44q49 49 49 155v145h358v-229q0 -182 -68 -279q-64 -92 -192 -92h-357z" />
<glyph unicode="&#x66e;" horiz-adv-x="836" d="M-20 0v256h98q68 0 112 44q49 49 49 155v145h358v-145q0 -106 49 -155q44 -44 112 -44h98v-256h-251q-110 0 -187 109q-77 -109 -187 -109h-251z" />
<glyph unicode="&#x66e;" horiz-adv-x="2168" d="M130 383q-1 138 63 230h358q-51 -94 -51 -184q0 -91 189 -157q72 -25 156 -25q205 0 361 47q243 73 292 159q64 113 30 216h358q16 -75 16 -120q0 -147 54 -224q50 -69 157 -69h75v-256h-130q-270 0 -372 162q-43 -52 -200 -93q-291 -77 -666 -79q-234 -1 -360 28 q-329 77 -330 365z" />
<glyph unicode="&#x66f;" horiz-adv-x="1341" d="M-20 0v256h576q59 0 96 9q82 20 105 89q-1 -6 -122 -5q-235 0 -316 71q-98 84 -98 216q0 52 8 96q28 161 173 217q109 42 262 43q233 1 339 -57q81 -45 142 -209q33 -89 33 -262q0 -151 -113 -311q-47 -66 -189 -117q-101 -36 -240 -36h-656zM579 656q0 -40 35 -69 q22 -18 70 -18q52 0 81 22q36 28 36 66q0 59 -50 88q-28 16 -71 15q-47 0 -75 -29q-26 -26 -26 -75z" />
<glyph unicode="&#x66f;" horiz-adv-x="1474" d="M-20 0v256h47q196 0 363 20q-167 130 -167 256q0 155 36 236q52 117 139 158q141 66 339 66t339 -66q87 -41 139 -158q36 -81 36 -236q0 -126 -167 -256q167 -20 363 -20h47v-256h-107q-193 0 -352 15q-196 19 -298 69q-102 -50 -298 -69q-159 -15 -352 -15h-107z M600 572q0 -104 137 -156q137 52 137 156q0 78 -46 133q-25 30 -91 30t-91 -30q-46 -55 -46 -133z" />
<glyph unicode="&#x66f;" horiz-adv-x="1846" d="M107 -65q8 120 47 165h358q-53 -45 -53 -109q0 -58 11 -86q60 -149 230 -149q265 0 433 98q108 64 134 146q-22 0 -121 2q-223 5 -316 86q-98 84 -98 216q0 52 8 96q28 161 173 217q109 42 262 43q244 1 339 -57q89 -55 142 -209q20 -57 27 -138h183v-256h-202 q-19 -110 -90 -212q-95 -131 -270 -193q-279 -99 -609 -95q-382 3 -511 192q-84 123 -77 243zM1090 340q0 -45 35 -64q36 -19 70 -19h122q0 39 -5 68q-6 41 -53 80q-29 24 -68 23q-42 -1 -71 -30q-30 -30 -30 -58z" />
<glyph unicode="&#x67c;" horiz-adv-x="769" d="M-20 0v256h98q68 0 112 44q49 49 49 155v145h358v-229q0 -182 -68 -279q-64 -92 -192 -92h-357zM199 -80q0 92 64 156q63 63 155 63t156 -63q63 -64 63 -156t-63 -156q-64 -64 -156 -64t-155 64q-64 64 -64 156zM218 850v150h150v-150h-150zM331 -80q0 -38 25 -63t62 -25 t62 26q26 25 26 62q0 36 -26 62q-25 25 -62 25t-62 -25t-25 -62zM468 850v150h150v-150h-150z" />
<glyph unicode="&#x67c;" horiz-adv-x="836" d="M-20 0v256h98q68 0 112 44q49 49 49 155v145h358v-145q0 -106 49 -155q44 -44 112 -44h98v-256h-251q-110 0 -187 109q-77 -109 -187 -109h-251zM199 -30q0 92 64 156q63 63 155 63t156 -63q63 -64 63 -156t-63 -156q-64 -64 -156 -64t-155 64q-64 64 -64 156zM218 850 v150h150v-150h-150zM331 -30q0 -38 25 -63t62 -25t62 26q26 25 26 62q0 36 -26 62q-25 25 -62 25t-62 -25t-25 -62zM468 850v150h150v-150h-150z" />
<glyph unicode="&#x67c;" horiz-adv-x="2168" d="M130 383q-1 138 63 230h358q-51 -94 -51 -184q0 -91 189 -157q72 -25 156 -25q205 0 361 47q243 73 292 159q64 113 30 216h358q16 -75 16 -120q0 -147 54 -224q50 -69 157 -69h75v-256h-130q-270 0 -372 162q-43 -52 -200 -93q-291 -77 -666 -79q-234 -1 -360 28 q-329 77 -330 365zM756 -130q0 92 64 156q63 63 155 63t156 -63q63 -64 63 -156t-63 -156q-64 -64 -156 -64t-155 64q-64 64 -64 156zM775 700v150h150v-150h-150zM888 -130q0 -38 25 -63t62 -25t62 26q26 25 26 62q0 36 -26 62q-25 25 -62 25t-62 -25t-25 -62zM1025 700 v150h150v-150h-150z" />
<glyph unicode="&#x67d;" horiz-adv-x="769" d="M-20 0v256h98q68 0 112 44q49 49 49 155v145h358v-229q0 -182 -68 -279q-64 -92 -192 -92h-357zM218 1160v150h150v-150h-150zM343 910v150h150v-150h-150zM468 1160v150h150v-150h-150z" />
<glyph unicode="&#x67d;" horiz-adv-x="836" d="M-20 0v256h98q68 0 112 44q49 49 49 155v145h358v-145q0 -106 49 -155q44 -44 112 -44h98v-256h-251q-110 0 -187 109q-77 -109 -187 -109h-251zM218 1160v150h150v-150h-150zM343 910v150h150v-150h-150zM468 1160v150h150v-150h-150z" />
<glyph unicode="&#x67d;" horiz-adv-x="2168" d="M130 383q-1 138 63 230h358q-51 -94 -51 -184q0 -91 189 -157q72 -25 156 -25q205 0 361 47q243 73 292 159q64 113 30 216h358q16 -75 16 -120q0 -147 54 -224q50 -69 157 -69h75v-256h-130q-270 0 -372 162q-43 -52 -200 -93q-291 -77 -666 -79q-234 -1 -360 28 q-329 77 -330 365zM775 1010v150h150v-150h-150zM900 760v150h150v-150h-150zM1025 1010v150h150v-150h-150z" />
<glyph unicode="&#x681;" horiz-adv-x="1476" d="M-20 0v256h100q206 0 345 34q142 36 251 105q96 61 191 109q-75 25 -188 40q-94 12 -248 25q-71 6 -243 -4v256q72 7 147 8q242 0 433 -35q279 -50 519 -122v-256q-91 -32 -204 -98q-129 -76 -264 -168q-115 -79 -327 -116q-193 -34 -384 -34h-128zM553 1195 q3 106 56 149q48 40 179 40q66 0 128 -22v-125q-70 20 -128 20q-42 0 -61 -9q-29 -14 -29 -62q0 -52 63 -68q24 -6 54 -1l109 20v-129l-363 -77v127l78 18q-54 12 -70 45q-16 34 -16 74z" />
<glyph unicode="&#x681;" horiz-adv-x="1476" d="M-20 0v256h100q206 0 345 34q142 36 251 105q96 61 191 109q-75 25 -188 40q-94 12 -248 25q-71 6 -243 -4v256q72 7 147 8q242 0 433 -35q279 -50 519 -122v-256l-47 -18q22 -49 44 -74q59 -68 146 -68h66v-256h-86q-204 0 -311 117q-52 57 -99 152q-82 -59 -181 -119 q-136 -83 -327 -116q-194 -34 -384 -34h-128zM553 1195q3 106 56 149q48 40 179 40q66 0 128 -22v-125q-70 20 -128 20q-42 0 -61 -9q-29 -14 -29 -62q0 -52 63 -68q24 -6 54 -1l109 20v-129l-363 -77v127l78 18q-54 12 -70 45q-16 34 -16 74z" />
<glyph unicode="&#x681;" horiz-adv-x="1476" d="M157 551v256q271 63 471 63q352 0 642 -38v-256q-14 1 -27 1q-16 1 -31 1q0 -60 73 -203q61 -119 145 -119h66v-256h-86q-158 0 -279 149q-71 88 -131 212q-50 107 -68 179q-109 -35 -192 -102q-203 -163 -203 -363q0 -121 103 -227q90 -92 327 -92q301 0 507 153v-275 q-164 -134 -502 -134q-437 1 -637 199q-156 154 -156 376q0 179 140 350q102 125 300 203q-84 3 -232 -17q-135 -19 -230 -60zM503 1295q3 106 56 149q48 40 179 40q66 0 128 -22v-125q-70 20 -128 20q-42 0 -61 -9q-29 -14 -29 -62q0 -52 63 -68q24 -6 54 -1l109 20v-129 l-363 -77v127l78 18q-54 12 -70 45q-16 34 -16 74z" />
<glyph unicode="&#x682;" horiz-adv-x="1476" d="M-20 0v256h100q206 0 345 34q142 36 251 105q96 61 191 109q-75 25 -188 40q-94 12 -248 25q-71 6 -243 -4v256q72 7 147 8q242 0 433 -35q279 -50 519 -122v-256q-91 -32 -204 -98q-129 -76 -264 -168q-115 -79 -327 -116q-193 -34 -384 -34h-128zM670 1010v150h150 v-150h-150zM670 1260v150h150v-150h-150z" />
<glyph unicode="&#x682;" horiz-adv-x="1476" d="M-20 0v256h100q206 0 345 34q142 36 251 105q96 61 191 109q-75 25 -188 40q-94 12 -248 25q-71 6 -243 -4v256q72 7 147 8q242 0 433 -35q279 -50 519 -122v-256l-47 -18q22 -49 44 -74q59 -68 146 -68h66v-256h-86q-204 0 -311 117q-52 57 -99 152q-82 -59 -181 -119 q-136 -83 -327 -116q-194 -34 -384 -34h-128zM670 1010v150h150v-150h-150zM670 1260v150h150v-150h-150z" />
<glyph unicode="&#x682;" horiz-adv-x="1476" d="M157 551v256q271 63 471 63q352 0 642 -38v-256q-14 1 -27 1q-16 1 -31 1q0 -60 73 -203q61 -119 145 -119h66v-256h-86q-158 0 -279 149q-71 88 -131 212q-50 107 -68 179q-109 -35 -192 -102q-203 -163 -203 -363q0 -121 103 -227q90 -92 327 -92q301 0 507 153v-275 q-164 -134 -502 -134q-437 1 -637 199q-156 154 -156 376q0 179 140 350q102 125 300 203q-84 3 -232 -17q-135 -19 -230 -60zM620 1110v150h150v-150h-150zM620 1360v150h150v-150h-150z" />
<glyph unicode="&#x685;" horiz-adv-x="1476" d="M-20 0v256h100q206 0 345 34q142 36 251 105q96 61 191 109q-75 25 -188 40q-94 12 -248 25q-71 6 -243 -4v256q72 7 147 8q242 0 433 -35q279 -50 519 -122v-256q-91 -32 -204 -98q-129 -76 -264 -168q-115 -79 -327 -116q-193 -34 -384 -34h-128zM550 1010v150h150 v-150h-150zM675 1260v150h150v-150h-150zM800 1010v150h150v-150h-150z" />
<glyph unicode="&#x685;" horiz-adv-x="1476" d="M-20 0v256h100q206 0 345 34q142 36 251 105q96 61 191 109q-75 25 -188 40q-94 12 -248 25q-71 6 -243 -4v256q72 7 147 8q242 0 433 -35q279 -50 519 -122v-256l-47 -18q22 -49 44 -74q59 -68 146 -68h66v-256h-86q-204 0 -311 117q-52 57 -99 152q-82 -59 -181 -119 q-136 -83 -327 -116q-194 -34 -384 -34h-128zM550 1010v150h150v-150h-150zM675 1260v150h150v-150h-150zM800 1010v150h150v-150h-150z" />
<glyph unicode="&#x685;" horiz-adv-x="1476" d="M157 551v256q271 63 471 63q352 0 642 -38v-256q-14 1 -27 1q-16 1 -31 1q0 -60 73 -203q61 -119 145 -119h66v-256h-86q-158 0 -279 149q-71 88 -131 212q-50 107 -68 179q-109 -35 -192 -102q-203 -163 -203 -363q0 -121 103 -227q90 -92 327 -92q301 0 507 153v-275 q-164 -134 -502 -134q-437 1 -637 199q-156 154 -156 376q0 179 140 350q102 125 300 203q-84 3 -232 -17q-135 -19 -230 -60zM500 1110v150h150v-150h-150zM625 1360v150h150v-150h-150zM750 1110v150h150v-150h-150z" />
<glyph unicode="&#x689;" horiz-adv-x="1183" d="M125 0v255q157 -61 266 -33q174 45 200 127q27 87 -46 226q-62 121 -217 275h369q130 -164 158 -215q46 -82 66 -161q27 -111 90 -174q44 -44 117 -44h75v-256h-130q-182 0 -236 105q-125 -105 -372 -136q-193 -24 -340 31zM341 -148q0 92 64 156q63 63 155 63t156 -63 q63 -64 63 -156t-63 -156q-64 -64 -156 -64t-155 64q-64 64 -64 156zM473 -148q0 -38 25 -63t62 -25t62 26q26 25 26 62q0 36 -26 62q-25 25 -62 25t-62 -25t-25 -62z" />
<glyph unicode="&#x68a;" horiz-adv-x="1183" d="M125 0v255q157 -61 266 -33q174 45 200 127q27 87 -46 226q-62 121 -217 275h369q130 -164 158 -215q46 -82 66 -161q27 -111 90 -174q44 -44 117 -44h75v-256h-130q-182 0 -236 105q-125 -105 -372 -136q-193 -24 -340 31zM485 -200h150v-150h-150v150z" />
<glyph unicode="&#x68b;" horiz-adv-x="1183" d="M125 0v255q157 -61 266 -33q174 45 200 127q27 87 -46 226q-62 121 -217 275h369q130 -164 158 -215q46 -82 66 -161q27 -111 90 -174q44 -44 117 -44h75v-256h-130q-182 0 -236 105q-125 -105 -372 -136q-193 -24 -340 31zM245 1004v135h60v388h136v-280q75 84 157 84 t108 -19q68 -50 68 -125q0 -92 -67 -144q-51 -39 -170 -39h-175h-117zM481 1139h33q50 0 90 13q38 14 38 35q0 37 -30 35q-21 -3 -47 -14q-49 -22 -84 -69zM485 -200h150v-150h-150v150z" />
<glyph unicode="&#x68f;" horiz-adv-x="1183" d="M125 0v255q157 -61 266 -33q174 45 200 127q27 87 -46 226q-62 121 -217 275h369q130 -164 158 -215q46 -82 66 -161q27 -111 90 -174q44 -44 117 -44h75v-256h-130q-182 0 -236 105q-125 -105 -372 -136q-193 -24 -340 31zM310 1250v150h150v-150h-150zM435 1000v150 h150v-150h-150zM560 1250v150h150v-150h-150z" />
<glyph unicode="&#x690;" horiz-adv-x="1183" d="M125 0v255q157 -61 266 -33q174 45 200 127q27 87 -46 226q-62 121 -217 275h369q130 -164 158 -215q46 -82 66 -161q27 -111 90 -174q44 -44 117 -44h75v-256h-130q-182 0 -236 105q-125 -105 -372 -136q-193 -24 -340 31zM310 1050v150h150v-150h-150zM310 1300v150 h150v-150h-150zM560 1050v150h150v-150h-150zM560 1300v150h150v-150h-150z" />
<glyph unicode="&#x692;" horiz-adv-x="1274" d="M-85 -244q309 0 465 68q154 67 233 176q73 101 71 284q0 145 -52 266h358q11 -34 20 -66q34 -125 92 -184q44 -44 117 -44h75v-256h-130q-86 0 -152 26q-22 -81 -60 -138q-127 -189 -350 -287q-230 -101 -687 -101v256zM491 1138h179l130 -195l130 195h179l-195 -326 h-228z" />
<glyph unicode="&#x693;" horiz-adv-x="1274" d="M-85 -244q309 0 465 68q154 67 233 176q73 101 71 284q0 145 -52 266h358q11 -34 20 -66q34 -125 92 -184q44 -44 117 -44h75v-256h-130q-86 0 -152 26q-22 -81 -60 -138q-127 -189 -350 -287q-230 -101 -687 -101v256zM765 -280q0 92 64 156q63 63 155 63t156 -63 q63 -64 63 -156t-63 -156q-64 -64 -156 -64t-155 64q-64 64 -64 156zM897 -280q0 -38 25 -63t62 -25t62 26q26 25 26 62q0 36 -26 62q-25 25 -62 25t-62 -25t-25 -62z" />
<glyph unicode="&#x694;" horiz-adv-x="1274" d="M-85 -244q309 0 465 68q154 67 233 176q73 101 71 284q0 145 -52 266h358q11 -34 20 -66q34 -125 92 -184q44 -44 117 -44h75v-256h-130q-86 0 -152 26q-22 -81 -60 -138q-127 -189 -350 -287q-230 -101 -687 -101v256zM920 -290h150v-150h-150v150z" />
<glyph unicode="&#x695;" horiz-adv-x="1395" d="M-85 -244q309 0 465 68q154 67 233 176q73 101 71 284q0 145 -52 266h358q11 -34 20 -66q34 -125 92 -184q44 -44 117 -44h196v-256h-251q-86 0 -152 26q-22 -81 -60 -138q-127 -189 -350 -287q-230 -101 -687 -101v256zM925 -174h179l130 -195l130 195h179l-195 -326 h-228z" />
<glyph unicode="&#x696;" horiz-adv-x="1274" d="M-85 -244q309 0 465 68q154 67 233 176q73 101 71 284q0 145 -52 266h358q11 -34 20 -66q34 -125 92 -184q44 -44 117 -44h75v-256h-130q-86 0 -152 26q-22 -81 -60 -138q-127 -189 -350 -287q-230 -101 -687 -101v256zM280 40v150h150v-150h-150zM920 -290h150v-150 h-150v150z" />
<glyph unicode="&#x697;" horiz-adv-x="1274" d="M-85 -244q309 0 465 68q154 67 233 176q73 101 71 284q0 145 -52 266h358q11 -34 20 -66q34 -125 92 -184q44 -44 117 -44h75v-256h-130q-86 0 -152 26q-22 -81 -60 -138q-127 -189 -350 -287q-230 -101 -687 -101v256zM600 800v150h150v-150h-150zM850 800v150h150v-150 h-150z" />
<glyph unicode="&#x699;" horiz-adv-x="1274" d="M-85 -244q309 0 465 68q154 67 233 176q73 101 71 284q0 145 -52 266h358q11 -34 20 -66q34 -125 92 -184q44 -44 117 -44h75v-256h-130q-86 0 -152 26q-22 -81 -60 -138q-127 -189 -350 -287q-230 -101 -687 -101v256zM600 800v150h150v-150h-150zM600 1050v150h150 v-150h-150zM850 800v150h150v-150h-150zM850 1050v150h150v-150h-150z" />
<glyph unicode="&#x69a;" horiz-adv-x="2014" d="M-20 0v256h98q68 0 112 44q50 50 49 155l-1 145h358v-156q0 -36 45 -134q27 -59 110 -60q71 -1 95 53q37 84 37 297h358q0 -205 19 -255q36 -95 102 -95q125 0 125 206v294h358v-342q0 -199 -92 -312q-72 -89 -213 -113q-67 -12 -180 -12q-81 0 -139 29q-149 72 -159 169 q-35 -133 -173 -169q-72 -18 -142 -18q-255 0 -338 96q-74 -78 -161 -78h-268zM900 850v150h150v-150h-150zM1050 -200h150v-150h-150v150z" />
<glyph unicode="&#x69a;" horiz-adv-x="2084" d="M-20 0v256h98q68 0 112 44q50 50 49 155l-1 145h358v-156q0 -36 45 -134q27 -59 110 -60q71 -1 95 53q37 84 37 297h358q0 -205 19 -255q36 -95 102 -95q125 0 125 206v294h358v-295q0 -106 49 -155q44 -44 112 -44h98v-256h-268q-80 0 -129 52q-88 -55 -167 -69 q-67 -12 -180 -12q-81 0 -139 29q-149 72 -159 169q-35 -133 -173 -169q-72 -18 -142 -18q-255 0 -338 96q-74 -78 -161 -78h-268zM900 850v150h150v-150h-150zM1050 -200h150v-150h-150v150z" />
<glyph unicode="&#x69a;" horiz-adv-x="2895" d="M130 -22q0 196 105 376h358q-108 -206 -107 -376q1 -159 144 -200q38 -11 91 -11q110 0 188 58q89 67 128 135q58 104 58 220q0 122 -17 186l-64 234h358l36 -156q16 -74 44 -134q26 -57 110 -60q74 -3 95 53q37 98 37 297h358q0 -205 19 -255q36 -95 102 -95 q125 0 125 206v294h358v-295q0 -106 49 -155q44 -44 112 -44h98v-256h-268q-80 0 -129 52q-88 -55 -167 -69q-61 -12 -180 -12q-81 0 -139 29q-149 72 -159 169q-35 -133 -173 -169q-72 -18 -142 -18q-86 0 -154 90q0 -183 -78 -301q-120 -181 -355 -245q-96 -26 -244 -26 q-199 0 -304 36q-293 101 -293 442zM1500 800v150h150v-150h-150zM1650 -200h150v-150h-150v150z" />
<glyph unicode="&#x69b;" horiz-adv-x="2014" d="M-20 0v256h98q68 0 112 44q50 50 49 155l-1 145h358v-156q0 -36 45 -134q27 -59 110 -60q71 -1 95 53q37 84 37 297h358q0 -205 19 -255q36 -95 102 -95q125 0 125 206v294h358v-342q0 -199 -92 -312q-72 -89 -213 -113q-67 -12 -180 -12q-81 0 -139 29q-149 72 -159 169 q-35 -133 -173 -169q-72 -18 -142 -18q-255 0 -338 96q-74 -78 -161 -78h-268zM925 -100h150v-150h-150v150zM1050 -350h150v-150h-150v150zM1175 -100h150v-150h-150v150z" />
<glyph unicode="&#x69b;" horiz-adv-x="2084" d="M-20 0v256h98q68 0 112 44q50 50 49 155l-1 145h358v-156q0 -36 45 -134q27 -59 110 -60q71 -1 95 53q37 84 37 297h358q0 -205 19 -255q36 -95 102 -95q125 0 125 206v294h358v-295q0 -106 49 -155q44 -44 112 -44h98v-256h-268q-80 0 -129 52q-88 -55 -167 -69 q-67 -12 -180 -12q-81 0 -139 29q-149 72 -159 169q-35 -133 -173 -169q-72 -18 -142 -18q-255 0 -338 96q-74 -78 -161 -78h-268zM925 -100h150v-150h-150v150zM1050 -350h150v-150h-150v150zM1175 -100h150v-150h-150v150z" />
<glyph unicode="&#x69b;" horiz-adv-x="2895" d="M130 -22q0 196 105 376h358q-108 -206 -107 -376q1 -159 144 -200q38 -11 91 -11q110 0 188 58q89 67 128 135q58 104 58 220q0 122 -17 186l-64 234h358l36 -156q16 -74 44 -134q26 -57 110 -60q74 -3 95 53q37 98 37 297h358q0 -205 19 -255q36 -95 102 -95 q125 0 125 206v294h358v-295q0 -106 49 -155q44 -44 112 -44h98v-256h-268q-80 0 -129 52q-88 -55 -167 -69q-61 -12 -180 -12q-81 0 -139 29q-149 72 -159 169q-35 -133 -173 -169q-72 -18 -142 -18q-86 0 -154 90q0 -183 -78 -301q-120 -181 -355 -245q-96 -26 -244 -26 q-199 0 -304 36q-293 101 -293 442zM1525 -100h150v-150h-150v150zM1650 -350h150v-150h-150v150zM1775 -100h150v-150h-150v150z" />
<glyph unicode="&#x69c;" horiz-adv-x="2014" d="M-20 0v256h98q68 0 112 44q50 50 49 155l-1 145h358v-156q0 -36 45 -134q27 -59 110 -60q71 -1 95 53q37 84 37 297h358q0 -205 19 -255q36 -95 102 -95q125 0 125 206v294h358v-342q0 -199 -92 -312q-72 -89 -213 -113q-67 -12 -180 -12q-81 0 -139 29q-149 72 -159 169 q-35 -133 -173 -169q-72 -18 -142 -18q-255 0 -338 96q-74 -78 -161 -78h-268zM775 800v150h150v-150h-150zM900 1050v150h150v-150h-150zM925 -100h150v-150h-150v150zM1025 800v150h150v-150h-150zM1050 -350h150v-150h-150v150zM1175 -100h150v-150h-150v150z" />
<glyph unicode="&#x69c;" horiz-adv-x="2084" d="M-20 0v256h98q68 0 112 44q50 50 49 155l-1 145h358v-156q0 -36 45 -134q27 -59 110 -60q71 -1 95 53q37 84 37 297h358q0 -205 19 -255q36 -95 102 -95q125 0 125 206v294h358v-295q0 -106 49 -155q44 -44 112 -44h98v-256h-268q-80 0 -129 52q-88 -55 -167 -69 q-67 -12 -180 -12q-81 0 -139 29q-149 72 -159 169q-35 -133 -173 -169q-72 -18 -142 -18q-255 0 -338 96q-74 -78 -161 -78h-268zM775 800v150h150v-150h-150zM900 1050v150h150v-150h-150zM925 -100h150v-150h-150v150zM1025 800v150h150v-150h-150zM1050 -350h150v-150 h-150v150zM1175 -100h150v-150h-150v150z" />
<glyph unicode="&#x69c;" horiz-adv-x="2895" d="M130 -22q0 196 105 376h358q-108 -206 -107 -376q1 -159 144 -200q38 -11 91 -11q110 0 188 58q89 67 128 135q58 104 58 220q0 122 -17 186l-64 234h358l36 -156q16 -74 44 -134q26 -57 110 -60q74 -3 95 53q37 98 37 297h358q0 -205 19 -255q36 -95 102 -95 q125 0 125 206v294h358v-295q0 -106 49 -155q44 -44 112 -44h98v-256h-268q-80 0 -129 52q-88 -55 -167 -69q-61 -12 -180 -12q-81 0 -139 29q-149 72 -159 169q-35 -133 -173 -169q-72 -18 -142 -18q-86 0 -154 90q0 -183 -78 -301q-120 -181 -355 -245q-96 -26 -244 -26 q-199 0 -304 36q-293 101 -293 442zM1375 800v150h150v-150h-150zM1500 1050v150h150v-150h-150zM1525 -100h150v-150h-150v150zM1625 800v150h150v-150h-150zM1650 -350h150v-150h-150v150zM1775 -100h150v-150h-150v150z" />
<glyph unicode="&#x69d;" horiz-adv-x="1979" d="M-20 0v256h98q68 0 112 44q50 50 49 155l-1 145h358v-156q0 -101 67 -154q104 223 296 346q164 105 320 105q185 0 304 -51q231 -99 231 -292q0 -211 -184 -307q-174 -91 -576 -91h-276q-103 0 -198 30q-76 24 -124 84q-108 -114 -208 -114h-268zM725 -200h150v-150h-150 v150zM975 -200h150v-150h-150v150zM987 256h68q157 0 283 50q118 47 118 102q0 28 -59 55q-53 22 -102 22q-75 -2 -185 -81q-67 -50 -123 -148z" />
<glyph unicode="&#x69d;" horiz-adv-x="2018" d="M-20 0v256h98q68 0 112 44q50 50 49 155l-1 145h358v-156q0 -101 67 -154q104 223 296 346q164 105 320 105q185 0 304 -51q231 -99 231 -292q0 -50 71 -107q45 -35 87 -35h66v-256h-86q-189 0 -277 120q-25 -19 -45 -29q-167 -91 -576 -91h-276q-103 0 -198 30 q-76 24 -124 84q-108 -114 -208 -114h-268zM725 -200h150v-150h-150v150zM975 -200h150v-150h-150v150zM987 256h68q157 0 283 50q118 47 118 102q0 28 -59 55q-53 22 -102 22q-75 -2 -185 -81q-67 -50 -123 -148z" />
<glyph unicode="&#x69d;" horiz-adv-x="2794" d="M130 -22q0 196 105 376h358q-108 -206 -107 -376q1 -159 144 -200q38 -11 91 -11q110 0 188 58q89 67 128 135q58 104 58 220q0 90 -51 270h330q2 -30 15 -70q14 -45 50 -90q104 223 296 346q164 105 320 105q185 0 304 -51q231 -99 231 -292q0 -50 71 -107 q45 -35 87 -35h66v-256h-86q-189 0 -277 120q-21 -16 -45 -29q-163 -91 -576 -91h-249q-61 0 -129 30q-27 12 -48 42q0 -183 -78 -301q-120 -181 -355 -245q-96 -26 -244 -26q-199 0 -304 36q-293 101 -293 442zM1525 -200h150v-150h-150v150zM1763 256h68q157 0 283 50 q118 47 118 102q0 28 -59 55q-53 22 -102 22q-75 -2 -185 -81q-67 -50 -123 -148zM1775 -200h150v-150h-150v150z" />
<glyph unicode="&#x69e;" horiz-adv-x="1979" d="M-20 0v256h98q68 0 112 44q50 50 49 155l-1 145h358v-156q0 -101 67 -154q104 223 296 346q164 105 320 105q185 0 304 -51q231 -99 231 -292q0 -211 -184 -307q-174 -91 -576 -91h-276q-103 0 -198 30q-76 24 -124 84q-108 -114 -208 -114h-268zM525 800v150h150v-150 h-150zM650 1050v150h150v-150h-150zM775 800v150h150v-150h-150zM987 256h68q157 0 283 50q118 47 118 102q0 28 -59 55q-53 22 -102 22q-75 -2 -185 -81q-67 -50 -123 -148z" />
<glyph unicode="&#x69e;" horiz-adv-x="2018" d="M-20 0v256h98q68 0 112 44q50 50 49 155l-1 145h358v-156q0 -101 67 -154q104 223 296 346q164 105 320 105q185 0 304 -51q231 -99 231 -292q0 -50 71 -107q45 -35 87 -35h66v-256h-86q-189 0 -277 120q-25 -19 -45 -29q-167 -91 -576 -91h-276q-103 0 -198 30 q-76 24 -124 84q-108 -114 -208 -114h-268zM525 800v150h150v-150h-150zM650 1050v150h150v-150h-150zM775 800v150h150v-150h-150zM987 256h68q157 0 283 50q118 47 118 102q0 28 -59 55q-53 22 -102 22q-75 -2 -185 -81q-67 -50 -123 -148z" />
<glyph unicode="&#x69e;" horiz-adv-x="2794" d="M130 -22q0 196 105 376h358q-108 -206 -107 -376q1 -159 144 -200q38 -11 91 -11q110 0 188 58q89 67 128 135q58 104 58 220q0 90 -51 270h330q2 -30 15 -70q14 -45 50 -90q104 223 296 346q164 105 320 105q185 0 304 -51q231 -99 231 -292q0 -50 71 -107 q45 -35 87 -35h66v-256h-86q-189 0 -277 120q-21 -16 -45 -29q-163 -91 -576 -91h-249q-61 0 -129 30q-27 12 -48 42q0 -183 -78 -301q-120 -181 -355 -245q-96 -26 -244 -26q-199 0 -304 36q-293 101 -293 442zM1275 800v150h150v-150h-150zM1400 1050v150h150v-150h-150z M1525 800v150h150v-150h-150zM1763 256h68q157 0 283 50q118 47 118 102q0 28 -59 55q-53 22 -102 22q-75 -2 -185 -81q-67 -50 -123 -148z" />
<glyph unicode="&#x69f;" horiz-adv-x="1929" d="M-20 0v256h302v1300h358v-1194q138 173 296 274q164 105 320 105q185 0 304 -51q231 -99 231 -292q0 -211 -184 -307q-174 -91 -576 -91h-652h-399zM761 850v150h150v-150h-150zM886 1100v150h150v-150h-150zM964 256h68q157 0 283 50q118 47 118 102q0 28 -59 55 q-53 22 -102 22q-75 -2 -185 -81q-67 -50 -123 -148zM1011 850v150h150v-150h-150z" />
<glyph unicode="&#x69f;" horiz-adv-x="1995" d="M-20 0v256h302v1300h358v-1194q138 173 296 274q164 105 320 105q185 0 304 -51q231 -99 231 -292q0 -50 71 -107q45 -35 87 -35h66v-256h-86q-189 0 -277 120q-15 -11 -45 -29q-167 -91 -576 -91h-652h-399zM761 850v150h150v-150h-150zM886 1100v150h150v-150h-150z M964 256h68q157 0 283 50q118 47 118 102q0 28 -59 55q-53 22 -102 22q-75 -2 -185 -81q-67 -50 -123 -148zM1011 850v150h150v-150h-150z" />
<glyph unicode="&#x69f;" horiz-adv-x="2193" d="M144 0v256h336v1300h358v-1194q138 173 296 274q164 105 320 105q185 0 304 -51q231 -99 231 -292q0 -50 71 -107q45 -35 87 -35h66v-256h-86q-189 0 -277 120q-15 -11 -45 -29q-167 -91 -576 -91h-652h-433zM1025 850v150h150v-150h-150zM1150 1100v150h150v-150h-150z M1162 256h68q157 0 283 50q118 47 118 102q0 28 -59 55q-53 22 -102 22q-75 -2 -185 -81q-67 -50 -123 -148zM1275 850v150h150v-150h-150z" />
<glyph unicode="&#x6a0;" horiz-adv-x="1399" d="M-20 0v256h110q175 0 304 41q-100 84 -139 148q-58 97 -47 235q11 142 212 285q127 90 545 101v-256q-178 5 -290 -55q-120 -64 -120 -150q0 -110 60 -150q91 -61 166 -41q180 48 412 146v-256q-189 -94 -493 -189q-368 -115 -585 -115h-135zM425 1200v150h150v-150h-150 zM550 1450v150h150v-150h-150zM675 1200v150h150v-150h-150z" />
<glyph unicode="&#x6a0;" horiz-adv-x="1156" d="M-20 0v256h96q105 0 164 46q17 13 60 56q-84 65 -117 112q-30 42 -30 84q0 36 13 77q16 55 120 107q89 45 292 45t292 -45q104 -52 120 -107q13 -41 13 -77q0 -42 -30 -84q-33 -47 -117 -112q43 -43 60 -56q59 -46 164 -46h96v-256h-118q-230 0 -480 163 q-250 -163 -480 -163h-118zM375 950v150h150v-150h-150zM500 1200v150h150v-150h-150zM625 950v150h150v-150h-150z" />
<glyph unicode="&#x6a0;" horiz-adv-x="1399" d="M117 0q0 138 87 254q82 112 135 143q-43 31 -72 73q-30 42 -30 84q0 34 13 77q16 55 120 107q89 45 292 45t292 -45q104 -52 120 -107q13 -41 13 -77q0 -42 -30 -84q-33 -47 -117 -112q41 -35 101 -56q134 -46 282 -46h96v-256h-118q-461 0 -680 213q-146 -89 -146 -213 q0 -78 103 -167q90 -78 327 -77q303 1 507 153v-275q-164 -134 -502 -134q-473 1 -636 162q-157 154 -157 338zM425 950v150h150v-150h-150zM550 1200v150h150v-150h-150zM675 950v150h150v-150h-150z" />
<glyph unicode="&#x6a1;" horiz-adv-x="1341" d="M-20 0v256h576q59 0 96 9q82 20 105 89q-1 -6 -122 -5q-235 0 -316 71q-98 84 -98 216q0 52 8 96q28 161 173 217q109 42 262 43q233 1 339 -57q81 -45 142 -209q33 -89 33 -262q0 -151 -113 -311q-47 -66 -189 -117q-101 -36 -240 -36h-656zM579 656q0 -40 35 -69 q22 -18 70 -18q52 0 81 22q36 28 36 66q0 59 -50 88q-28 16 -71 15q-47 0 -75 -29q-26 -26 -26 -75z" />
<glyph unicode="&#x6a1;" horiz-adv-x="1474" d="M-20 0v256h47q196 0 363 20q-167 130 -167 256q0 155 36 236q52 117 139 158q141 66 339 66t339 -66q87 -41 139 -158q36 -81 36 -236q0 -126 -167 -256q167 -20 363 -20h47v-256h-107q-193 0 -352 15q-196 19 -298 69q-102 -50 -298 -69q-159 -15 -352 -15h-107z M600 572q0 -104 137 -156q137 52 137 156q0 78 -46 133q-25 30 -91 30t-91 -30q-46 -55 -46 -133z" />
<glyph unicode="&#x6a1;" horiz-adv-x="2439" d="M130 314q-1 138 63 230h358q-51 -94 -51 -184q0 -70 189 -136q72 -25 330 -25q345 0 409 10q-13 12 -24 25q-140 160 -140 334q0 103 24 168q49 134 164 198q104 58 250 58q198 0 339 -66q87 -41 139 -158q36 -81 36 -236q0 -131 -88 -261q125 -15 284 -15h47v-256h-107 q-193 0 -352 15q-64 5 -122 14l-71 -29q-100 -56 -813 -58q-405 -1 -534 28q-329 75 -330 344zM1617 575q0 -101 67 -164q26 -25 80 -48q75 95 75 209q0 74 -50 134q-25 30 -71 30q-48 0 -75 -42q-26 -41 -26 -119z" />
<glyph unicode="&#x6a2;" horiz-adv-x="1341" d="M-20 0v256h576q59 0 96 9q82 20 105 89q-1 -6 -122 -5q-235 0 -316 71q-98 84 -98 216q0 52 8 96q28 161 173 217q109 42 262 43q233 1 339 -57q81 -45 142 -209q33 -89 33 -262q0 -151 -113 -311q-47 -66 -189 -117q-101 -36 -240 -36h-656zM579 656q0 -40 35 -69 q22 -18 70 -18q52 0 81 22q36 28 36 66q0 59 -50 88q-28 16 -71 15q-47 0 -75 -29q-26 -26 -26 -75zM624 -150h150v-150h-150v150z" />
<glyph unicode="&#x6a2;" horiz-adv-x="1474" d="M-20 0v256h47q196 0 363 20q-167 130 -167 256q0 155 36 236q52 117 139 158q141 66 339 66t339 -66q87 -41 139 -158q36 -81 36 -236q0 -126 -167 -256q167 -20 363 -20h47v-256h-107q-193 0 -352 15q-196 19 -298 69q-102 -50 -298 -69q-159 -15 -352 -15h-107z M600 572q0 -104 137 -156q137 52 137 156q0 78 -46 133q-25 30 -91 30t-91 -30q-46 -55 -46 -133zM624 -150h150v-150h-150v150z" />
<glyph unicode="&#x6a2;" horiz-adv-x="2439" d="M130 314q-1 138 63 230h358q-51 -94 -51 -184q0 -70 189 -136q72 -25 330 -25q345 0 409 10q-13 12 -24 25q-140 160 -140 334q0 103 24 168q49 134 164 198q104 58 250 58q198 0 339 -66q87 -41 139 -158q36 -81 36 -236q0 -131 -88 -261q125 -15 284 -15h47v-256h-107 q-193 0 -352 15q-64 5 -122 14l-71 -29q-100 -56 -813 -58q-405 -1 -534 28q-329 75 -330 344zM1000 -200h150v-150h-150v150zM1617 575q0 -101 67 -164q26 -25 80 -48q75 95 75 209q0 74 -50 134q-25 30 -71 30q-48 0 -75 -42q-26 -41 -26 -119z" />
<glyph unicode="&#x6a3;" horiz-adv-x="1341" d="M-20 0v256h576q59 0 96 9q82 20 105 89q-1 -6 -122 -5q-235 0 -316 71q-98 84 -98 216q0 52 8 96q28 161 173 217q109 42 262 43q233 1 339 -57q81 -45 142 -209q33 -89 33 -262q0 -151 -113 -311q-47 -66 -189 -117q-101 -36 -240 -36h-656zM579 656q0 -40 35 -69 q22 -18 70 -18q52 0 81 22q36 28 36 66q0 59 -50 88q-28 16 -71 15q-47 0 -75 -29q-26 -26 -26 -75zM624 -150h150v-150h-150v150zM625 1150v150h150v-150h-150z" />
<glyph unicode="&#x6a3;" horiz-adv-x="1474" d="M-20 0v256h47q196 0 363 20q-167 130 -167 256q0 155 36 236q52 117 139 158q141 66 339 66t339 -66q87 -41 139 -158q36 -81 36 -236q0 -126 -167 -256q167 -20 363 -20h47v-256h-107q-193 0 -352 15q-196 19 -298 69q-102 -50 -298 -69q-159 -15 -352 -15h-107z M600 572q0 -104 137 -156q137 52 137 156q0 78 -46 133q-25 30 -91 30t-91 -30q-46 -55 -46 -133zM624 -150h150v-150h-150v150zM625 1150v150h150v-150h-150z" />
<glyph unicode="&#x6a3;" horiz-adv-x="2439" d="M130 314q-1 138 63 230h358q-51 -94 -51 -184q0 -70 189 -136q72 -25 330 -25q345 0 409 10q-13 12 -24 25q-140 160 -140 334q0 103 24 168q49 134 164 198q104 58 250 58q198 0 339 -66q87 -41 139 -158q36 -81 36 -236q0 -131 -88 -261q125 -15 284 -15h47v-256h-107 q-193 0 -352 15q-64 5 -122 14l-71 -29q-100 -56 -813 -58q-405 -1 -534 28q-329 75 -330 344zM1000 -200h150v-150h-150v150zM1617 575q0 -101 67 -164q26 -25 80 -48q75 95 75 209q0 74 -50 134q-25 30 -71 30q-48 0 -75 -42q-26 -41 -26 -119zM1650 1150v150h150v-150 h-150z" />
<glyph unicode="&#x6a5;" horiz-adv-x="1341" d="M-20 0v256h576q59 0 96 9q82 20 105 89q-1 -6 -122 -5q-235 0 -316 71q-98 84 -98 216q0 52 8 96q28 161 173 217q109 42 262 43q233 1 339 -57q81 -45 142 -209q33 -89 33 -262q0 -151 -113 -311q-47 -66 -189 -117q-101 -36 -240 -36h-656zM500 -150h150v-150h-150v150 zM579 656q0 -40 35 -69q22 -18 70 -18q52 0 81 22q36 28 36 66q0 59 -50 88q-28 16 -71 15q-47 0 -75 -29q-26 -26 -26 -75zM625 -400h150v-150h-150v150zM750 -150h150v-150h-150v150z" />
<glyph unicode="&#x6a5;" horiz-adv-x="1474" d="M-20 0v256h47q196 0 363 20q-167 130 -167 256q0 155 36 236q52 117 139 158q141 66 339 66t339 -66q87 -41 139 -158q36 -81 36 -236q0 -126 -167 -256q167 -20 363 -20h47v-256h-107q-193 0 -352 15q-196 19 -298 69q-102 -50 -298 -69q-159 -15 -352 -15h-107z M500 -150h150v-150h-150v150zM600 572q0 -104 137 -156q137 52 137 156q0 78 -46 133q-25 30 -91 30t-91 -30q-46 -55 -46 -133zM625 -400h150v-150h-150v150zM750 -150h150v-150h-150v150z" />
<glyph unicode="&#x6a5;" horiz-adv-x="2439" d="M130 314q-1 138 63 230h358q-51 -94 -51 -184q0 -70 189 -136q72 -25 330 -25q345 0 409 10q-13 12 -24 25q-140 160 -140 334q0 103 24 168q49 134 164 198q104 58 250 58q198 0 339 -66q87 -41 139 -158q36 -81 36 -236q0 -131 -88 -261q125 -15 284 -15h47v-256h-107 q-193 0 -352 15q-64 5 -122 14l-71 -29q-100 -56 -813 -58q-405 -1 -534 28q-329 75 -330 344zM875 -200h150v-150h-150v150zM1000 -450h150v-150h-150v150zM1125 -200h150v-150h-150v150zM1617 575q0 -101 67 -164q26 -25 80 -48q75 95 75 209q0 74 -50 134q-25 30 -71 30 q-48 0 -75 -42q-26 -41 -26 -119z" />
<glyph unicode="&#x6a7;" horiz-adv-x="1341" d="M-20 0v256h576q59 0 96 9q82 20 105 89q-1 -6 -122 -5q-235 0 -316 71q-98 84 -98 216q0 52 8 96q28 161 173 217q109 42 262 43q233 1 339 -57q81 -45 142 -209q33 -89 33 -262q0 -151 -113 -311q-47 -66 -189 -117q-101 -36 -240 -36h-656zM579 656q0 -40 35 -69 q22 -18 70 -18q52 0 81 22q36 28 36 66q0 59 -50 88q-28 16 -71 15q-47 0 -75 -29q-26 -26 -26 -75zM600 1135v150h150v-150h-150z" />
<glyph unicode="&#x6a7;" horiz-adv-x="1474" d="M-20 0v256h47q196 0 363 20q-167 130 -167 256q0 155 36 236q52 117 139 158q141 66 339 66t339 -66q87 -41 139 -158q36 -81 36 -236q0 -126 -167 -256q167 -20 363 -20h47v-256h-107q-193 0 -352 15q-196 19 -298 69q-102 -50 -298 -69q-159 -15 -352 -15h-107z M600 572q0 -104 137 -156q137 52 137 156q0 78 -46 133q-25 30 -91 30t-91 -30q-46 -55 -46 -133zM662 1135v150h150v-150h-150z" />
<glyph unicode="&#x6a7;" horiz-adv-x="1846" d="M107 -65q8 120 47 165h358q-53 -45 -53 -109q0 -58 11 -86q60 -149 230 -149q265 0 433 98q108 64 134 146q-22 0 -121 2q-223 5 -316 86q-98 84 -98 216q0 52 8 96q28 161 173 217q109 42 262 43q244 1 339 -57q89 -55 142 -209q20 -57 27 -138h183v-256h-202 q-19 -110 -90 -212q-95 -131 -270 -193q-279 -99 -609 -95q-382 3 -511 192q-84 123 -77 243zM1090 340q0 -45 35 -64q36 -19 70 -19h122q0 39 -5 68q-6 41 -53 80q-29 24 -68 23q-42 -1 -71 -30q-30 -30 -30 -58zM1150 875v150h150v-150h-150z" />
<glyph unicode="&#x6a8;" horiz-adv-x="1341" d="M-20 0v256h576q59 0 96 9q82 20 105 89q-1 -6 -122 -5q-235 0 -316 71q-98 84 -98 216q0 52 8 96q28 161 173 217q109 42 262 43q233 1 339 -57q81 -45 142 -209q33 -89 33 -262q0 -151 -113 -311q-47 -66 -189 -117q-101 -36 -240 -36h-656zM475 1210v150h150v-150h-150 zM579 656q0 -40 35 -69q22 -18 70 -18q52 0 81 22q36 28 36 66q0 59 -50 88q-28 16 -71 15q-47 0 -75 -29q-26 -26 -26 -75zM600 1460v150h150v-150h-150zM725 1210v150h150v-150h-150z" />
<glyph unicode="&#x6a8;" horiz-adv-x="1474" d="M-20 0v256h47q196 0 363 20q-167 130 -167 256q0 155 36 236q52 117 139 158q141 66 339 66t339 -66q87 -41 139 -158q36 -81 36 -236q0 -126 -167 -256q167 -20 363 -20h47v-256h-107q-193 0 -352 15q-196 19 -298 69q-102 -50 -298 -69q-159 -15 -352 -15h-107z M537 1210v150h150v-150h-150zM600 572q0 -104 137 -156q137 52 137 156q0 78 -46 133q-25 30 -91 30t-91 -30q-46 -55 -46 -133zM662 1460v150h150v-150h-150zM787 1210v150h150v-150h-150z" />
<glyph unicode="&#x6a8;" horiz-adv-x="1846" d="M107 -65q8 120 47 165h358q-53 -45 -53 -109q0 -58 11 -86q60 -149 230 -149q265 0 433 98q108 64 134 146q-22 0 -121 2q-223 5 -316 86q-98 84 -98 216q0 52 8 96q28 161 173 217q109 42 262 43q244 1 339 -57q89 -55 142 -209q20 -57 27 -138h183v-256h-202 q-19 -110 -90 -212q-95 -131 -270 -193q-279 -99 -609 -95q-382 3 -511 192q-84 123 -77 243zM1025 875v150h150v-150h-150zM1090 340q0 -45 35 -64q36 -19 70 -19h122q0 39 -5 68q-6 41 -53 80q-29 24 -68 23q-42 -1 -71 -30q-30 -30 -30 -58zM1150 1125v150h150v-150h-150 zM1275 875v150h150v-150h-150z" />
<glyph unicode="&#x6aa;" horiz-adv-x="2199" d="M-20 0v256h1497q114 0 131 39q18 25 18 43.5t-2 28.5q-24 118 -78 128l-1141 201q-306 54 -306 321q0 35 10 68q39 119 135 161l711 310h624l-908 -412q-113 -51 -142 -113q-8 -17 4.5 -59t117.5 -60l1102 -186q288 -49 288 -411q0 -168 -103.5 -241.5t-338.5 -73.5 h-1619z" />
<glyph unicode="&#x6aa;" horiz-adv-x="2198" d="M-20 0v256h1497q119 0 131 39q16 52 16 72q0 113 -78 128l-1141 201q-306 54 -306 321q0 35 10 68q39 119 135 161l711 310h624l-908 -412q-113 -51 -142 -113q-8 -17 4.5 -59t117.5 -60l1102 -186q245 -42 282 -310q18 -74 48.5 -117t110.5 -43h24v-256h-283 q-51 0 -99 27q-95 -27 -237 -27h-1619z" />
<glyph unicode="&#x6aa;" horiz-adv-x="2603" d="M130 314q0 139 63 230h358q-51 -94 -51 -184q0 -99 189 -157q81 -25 247 -25h600q298 0 348 35q117 82 129 82q2 0 11 46t9 63q0 77 -82 91l-1141 201q-306 54 -306 321q0 35 10 68q39 119 135 161l711 310h624l-908 -412q-113 -51 -142 -113q-8 -17 4.5 -59t117.5 -60 l1102 -186q245 -42 282 -310q18 -74 48.5 -117t110.5 -43h24v-256h-283q-52 0 -100 28q-136 -54 -293 -80.5t-436 -26.5h-600q-304 0 -451 28q-330 63 -330 365z" />
<glyph unicode="&#x6ab;" horiz-adv-x="1191" d="M-20 0v256h396q114 0 131 39q16 36 16 72q0 28 -78 128l-297 380q-50 63 -50 142q0 35 10 68q34 128 135 161l948 310v-256l-571 -199q-68 -24 -92 -70q-6 -11 -6 -36q0 -27 31 -69l231 -311q156 -210 156 -300q0 -168 -101 -240q-106 -75 -341 -75h-518zM700 1095 q0 92 64 156q63 63 155 63t156 -63q63 -64 63 -156t-63 -156q-64 -64 -156 -64t-155 64q-64 64 -64 156zM832 1095q0 -38 25 -63t62 -25t62 26q26 25 26 62q0 36 -26 62q-25 25 -62 25t-62 -25t-25 -62z" />
<glyph unicode="&#x6ab;" horiz-adv-x="1131" d="M-20 0v256h396q114 0 131 39q16 36 16 72q0 28 -78 128l-297 380q-50 63 -50 142q0 35 10 68q34 128 135 161l948 310v-256l-571 -199q-68 -24 -92 -70q-6 -11 -6 -36q0 -28 31 -69l419 -560q36 -48 84 -84q35 -26 90 -26h65v-256h-143q-154 0 -229 75q-106 -75 -341 -75 h-518zM700 1095q0 92 64 156q63 63 155 63t156 -63q63 -64 63 -156t-63 -156q-64 -64 -156 -64t-155 64q-64 64 -64 156zM832 1095q0 -38 25 -63t62 -25t62 26q26 25 26 62q0 36 -26 62q-25 25 -62 25t-62 -25t-25 -62z" />
<glyph unicode="&#x6ab;" horiz-adv-x="2097" d="M130 314q-1 138 63 230h358q-51 -94 -51 -184q0 -99 189 -157q81 -25 247 -25q180 0 348 35q103 21 129 82q16 36 16 72q0 28 -78 128l-297 380q-50 63 -50 142q0 35 10 68q37 129 135 161l948 310v-256l-571 -199q-68 -24 -92 -70q-6 -11 -6 -36q0 -28 31 -69l419 -560 q36 -48 84 -84q35 -26 90 -26h65v-256h-143q-154 0 -229 75q-189 -93 -341 -118q-220 -36 -493 -36q-305 0 -451 28q-329 63 -330 365zM1600 1095q0 92 64 156q63 63 155 63t156 -63q63 -64 63 -156t-63 -156q-64 -64 -156 -64t-155 64q-64 64 -64 156zM1732 1095 q0 -38 25 -63t62 -25t62 26q26 25 26 62q0 36 -26 62q-25 25 -62 25t-62 -25t-25 -62z" />
<glyph unicode="&#x6ac;" horiz-adv-x="1191" d="M-20 0v256h396q114 0 131 39q16 36 16 72q0 28 -78 128l-297 380q-50 63 -50 142q0 35 10 68q34 128 135 161l948 310v-256l-571 -199q-68 -24 -92 -70q-6 -11 -6 -36q0 -27 31 -69l231 -311q156 -210 156 -300q0 -168 -101 -240q-106 -75 -341 -75h-518zM325 1500v150 h150v-150h-150z" />
<glyph unicode="&#x6ac;" horiz-adv-x="1191" d="M-20 0v256h396q114 0 131 39q16 36 16 72q0 28 -78 128l-297 380q-50 63 -50 142q0 35 10 68q34 128 135 161l948 310v-256l-571 -199q-68 -24 -92 -70q-6 -11 -6 -36q0 -28 31 -69l419 -560q36 -48 84 -84q35 -26 90 -26h65v-256h-143q-154 0 -229 75q-106 -75 -341 -75 h-518zM325 1500v150h150v-150h-150z" />
<glyph unicode="&#x6ac;" horiz-adv-x="1907" d="M144 260q0 75 16 128h358q-14 -34 -14 -61q0 -46 162 -105q58 -21 183 -21q115 0 216 33q121 39 172 107q73 97 73 270v945h358v-1101q0 -106 49 -155q44 -44 112 -44h98v-256h-357q-75 0 -136 53q-110 -71 -246 -90q-140 -19 -334 -18q-315 2 -417 32q-293 88 -293 283z M651 617v121q68 -9 113 -9q85 0 117 14q60 26 60 67q0 23 -78 42q-64 16 -92 57q-32 47 -31 93q2 80 77 119q82 43 256 47v-115q-59 1 -112 -6q-80 -11 -80 -42q0 -43 38 -65q35 -20 56 -26q102 -32 102 -117q-1 -110 -88 -152q-82 -39 -216 -39q-66 0 -122 11zM825 1350 v150h150v-150h-150z" />
<glyph unicode="&#x6ae;" horiz-adv-x="1191" d="M-20 0v256h396q114 0 131 39q16 36 16 72q0 28 -78 128l-297 380q-50 63 -50 142q0 35 10 68q34 128 135 161l948 310v-256l-571 -199q-68 -24 -92 -70q-6 -11 -6 -36q0 -27 31 -69l231 -311q156 -210 156 -300q0 -168 -101 -240q-106 -75 -341 -75h-518zM325 -150h150 v-150h-150v150zM450 -400h150v-150h-150v150zM575 -150h150v-150h-150v150z" />
<glyph unicode="&#x6ae;" horiz-adv-x="1191" d="M-20 0v256h396q114 0 131 39q16 36 16 72q0 28 -78 128l-297 380q-50 63 -50 142q0 35 10 68q34 128 135 161l948 310v-256l-571 -199q-68 -24 -92 -70q-6 -11 -6 -36q0 -28 31 -69l419 -560q36 -48 84 -84q35 -26 90 -26h65v-256h-143q-154 0 -229 75q-106 -75 -341 -75 h-518zM325 -150h150v-150h-150v150zM450 -400h150v-150h-150v150zM575 -150h150v-150h-150v150z" />
<glyph unicode="&#x6ae;" horiz-adv-x="1907" d="M144 260q0 75 16 128h358q-14 -34 -14 -61q0 -46 162 -105q58 -21 183 -21q115 0 216 33q121 39 172 107q73 97 73 270v945h358v-1101q0 -106 49 -155q44 -44 112 -44h98v-256h-357q-75 0 -136 53q-110 -71 -246 -90q-140 -19 -334 -18q-315 2 -417 32q-293 88 -293 283z M651 617v121q68 -9 113 -9q85 0 117 14q60 26 60 67q0 23 -78 42q-64 16 -92 57q-32 47 -31 93q2 80 77 119q82 43 256 47v-115q-59 1 -112 -6q-80 -11 -80 -42q0 -43 38 -65q35 -20 56 -26q102 -32 102 -117q-1 -110 -88 -152q-82 -39 -216 -39q-66 0 -122 11zM725 -200 h150v-150h-150v150zM850 -450h150v-150h-150v150zM975 -200h150v-150h-150v150z" />
<glyph unicode="&#x6b0;" horiz-adv-x="1191" d="M-20 0v256h396q114 0 131 39q16 36 16 72q0 28 -78 128l-297 380q-50 63 -50 142q0 35 10 68q34 128 135 161l948 310v-256l-571 -199q-68 -24 -92 -70q-6 -11 -6 -36q0 -27 31 -69l231 -311q156 -210 156 -300q0 -168 -101 -240q-106 -75 -341 -75h-518zM129 1340v178 l1062 345v-178zM700 1095q0 92 64 156q63 63 155 63t156 -63q63 -64 63 -156t-63 -156q-64 -64 -156 -64t-155 64q-64 64 -64 156zM832 1095q0 -38 25 -63t62 -25t62 26q26 25 26 62q0 36 -26 62q-25 25 -62 25t-62 -25t-25 -62z" />
<glyph unicode="&#x6b0;" horiz-adv-x="1191" d="M-20 0v256h396q114 0 131 39q16 36 16 72q0 28 -78 128l-297 380q-50 63 -50 142q0 35 10 68q34 128 135 161l948 310v-256l-571 -199q-68 -24 -92 -70q-6 -11 -6 -36q0 -28 31 -69l419 -560q36 -48 84 -84q35 -26 90 -26h65v-256h-143q-154 0 -229 75q-106 -75 -341 -75 h-518zM129 1340v178l1062 345v-178zM700 1095q0 92 64 156q63 63 155 63t156 -63q63 -64 63 -156t-63 -156q-64 -64 -156 -64t-155 64q-64 64 -64 156zM832 1095q0 -38 25 -63t62 -25t62 26q26 25 26 62q0 36 -26 62q-25 25 -62 25t-62 -25t-25 -62z" />
<glyph unicode="&#x6b0;" horiz-adv-x="2097" d="M130 314q-1 138 63 230h358q-51 -94 -51 -184q0 -99 189 -157q81 -25 247 -25q180 0 348 35q103 21 129 82q16 36 16 72q0 28 -78 128l-297 380q-50 63 -50 142q0 35 10 68q37 129 135 161l948 310v-256l-571 -199q-68 -24 -92 -70q-6 -11 -6 -36q0 -28 31 -69l419 -560 q36 -48 84 -84q35 -26 90 -26h65v-256h-143q-154 0 -229 75q-189 -93 -341 -118q-220 -36 -493 -36q-305 0 -451 28q-329 63 -330 365zM1035 1340v178l1062 345v-178zM1600 1095q0 92 64 156q63 63 155 63t156 -63q63 -64 63 -156t-63 -156q-64 -64 -156 -64t-155 64 q-64 64 -64 156zM1732 1095q0 -38 25 -63t62 -25t62 26q26 25 26 62q0 36 -26 62q-25 25 -62 25t-62 -25t-25 -62z" />
<glyph unicode="&#x6b2;" horiz-adv-x="1191" d="M-20 0v256h396q114 0 131 39q16 36 16 72q0 28 -78 128l-297 380q-50 63 -50 142q0 35 10 68q34 128 135 161l948 310v-256l-571 -199q-68 -24 -92 -70q-6 -11 -6 -36q0 -27 31 -69l231 -311q156 -210 156 -300q0 -168 -101 -240q-106 -75 -341 -75h-518zM129 1340v178 l1062 345v-178zM325 -150h150v-150h-150v150zM575 -150h150v-150h-150v150z" />
<glyph unicode="&#x6b2;" horiz-adv-x="1191" d="M-20 0v256h396q114 0 131 39q16 36 16 72q0 28 -78 128l-297 380q-50 63 -50 142q0 35 10 68q34 128 135 161l948 310v-256l-571 -199q-68 -24 -92 -70q-6 -11 -6 -36q0 -28 31 -69l419 -560q36 -48 84 -84q35 -26 90 -26h65v-256h-143q-154 0 -229 75q-106 -75 -341 -75 h-518zM129 1340v178l1062 345v-178zM325 -150h150v-150h-150v150zM575 -150h150v-150h-150v150z" />
<glyph unicode="&#x6b2;" horiz-adv-x="2097" d="M130 314q-1 138 63 230h358q-51 -94 -51 -184q0 -99 189 -157q81 -25 247 -25q180 0 348 35q103 21 129 82q16 36 16 72q0 28 -78 128l-297 380q-50 63 -50 142q0 35 10 68q37 129 135 161l948 310v-256l-571 -199q-68 -24 -92 -70q-6 -11 -6 -36q0 -28 31 -69l419 -560 q36 -48 84 -84q35 -26 90 -26h65v-256h-143q-154 0 -229 75q-189 -93 -341 -118q-220 -36 -493 -36q-305 0 -451 28q-329 63 -330 365zM725 -200h150v-150h-150v150zM975 -200h150v-150h-150v150zM1035 1340v178l1062 345v-178z" />
<glyph unicode="&#x6b4;" horiz-adv-x="1191" d="M-20 0v256h396q114 0 131 39q16 36 16 72q0 28 -78 128l-297 380q-50 63 -50 142q0 35 10 68q34 128 135 161l948 310v-256l-571 -199q-68 -24 -92 -70q-6 -11 -6 -36q0 -27 31 -69l231 -311q156 -210 156 -300q0 -168 -101 -240q-106 -75 -341 -75h-518zM75 1700v150 h150v-150h-150zM129 1340v178l1062 345v-178zM200 1950v150h150v-150h-150zM325 1700v150h150v-150h-150z" />
<glyph unicode="&#x6b4;" horiz-adv-x="1191" d="M-20 0v256h396q114 0 131 39q16 36 16 72q0 28 -78 128l-297 380q-50 63 -50 142q0 35 10 68q34 128 135 161l948 310v-256l-571 -199q-68 -24 -92 -70q-6 -11 -6 -36q0 -28 31 -69l419 -560q36 -48 84 -84q35 -26 90 -26h65v-256h-143q-154 0 -229 75q-106 -75 -341 -75 h-518zM75 1700v150h150v-150h-150zM129 1340v178l1062 345v-178zM200 1950v150h150v-150h-150zM325 1700v150h150v-150h-150z" />
<glyph unicode="&#x6b4;" horiz-adv-x="2097" d="M130 314q-1 138 63 230h358q-51 -94 -51 -184q0 -99 189 -157q81 -25 247 -25q180 0 348 35q103 21 129 82q16 36 16 72q0 28 -78 128l-297 380q-50 63 -50 142q0 35 10 68q37 129 135 161l948 310v-256l-571 -199q-68 -24 -92 -70q-6 -11 -6 -36q0 -28 31 -69l419 -560 q36 -48 84 -84q35 -26 90 -26h65v-256h-143q-154 0 -229 75q-189 -93 -341 -118q-220 -36 -493 -36q-305 0 -451 28q-329 63 -330 365zM1025 1700v150h150v-150h-150zM1035 1340v178l1062 345v-178zM1150 1950v150h150v-150h-150zM1275 1700v150h150v-150h-150z" />
<glyph unicode="&#x6b5;" horiz-adv-x="769" d="M-20 0v256h98q68 0 112 44q49 49 49 155v1101h358v-1185q0 -182 -68 -279q-64 -92 -192 -92h-357zM109 1988h179l130 -195l130 195h179l-195 -326h-228z" />
<glyph unicode="&#x6b5;" horiz-adv-x="836" d="M-20 0v256h98q68 0 112 44q49 49 49 155v1101h358v-1101q0 -106 49 -155q44 -44 112 -44h98v-256h-251q-110 0 -187 109q-77 -109 -187 -109h-251zM109 1988h179l130 -195l130 195h179l-195 -326h-228z" />
<glyph unicode="&#x6b5;" horiz-adv-x="1828" d="M144 75q-1 138 63 230h358q-71 -102 -65 -230q5 -114 166 -148q130 -27 269 18q161 52 222 128q78 97 78 353v1130h358v-1130q0 -77 49 -126q44 -44 112 -44h94v-256h-247q-66 0 -77 16q-112 -212 -411 -294q-350 -97 -676 -12q-292 76 -293 365zM1105 1988h179l130 -195 l130 195h179l-195 -326h-228z" />
<glyph unicode="&#x6b6;" horiz-adv-x="769" d="M-20 0v256h98q68 0 112 44q49 49 49 155v1101h358v-1185q0 -182 -68 -279q-64 -92 -192 -92h-357zM332 1800v150h150v-150h-150z" />
<glyph unicode="&#x6b6;" horiz-adv-x="836" d="M-20 0v256h98q68 0 112 44q49 49 49 155v1101h358v-1101q0 -106 49 -155q44 -44 112 -44h98v-256h-251q-110 0 -187 109q-77 -109 -187 -109h-251zM332 1800v150h150v-150h-150z" />
<glyph unicode="&#x6b6;" horiz-adv-x="1828" d="M144 75q-1 138 63 230h358q-71 -102 -65 -230q5 -114 166 -148q130 -27 269 18q161 52 222 128q78 97 78 353v1130h358v-1130q0 -77 49 -126q44 -44 112 -44h94v-256h-247q-66 0 -77 16q-112 -212 -411 -294q-350 -97 -676 -12q-292 76 -293 365zM1330 1800v150h150v-150 h-150z" />
<glyph unicode="&#x6b7;" horiz-adv-x="769" d="M-20 0v256h98q68 0 112 44q49 49 49 155v1101h358v-1185q0 -182 -68 -279q-64 -92 -192 -92h-357zM202 1700v150h150v-150h-150zM327 1950v150h150v-150h-150zM452 1700v150h150v-150h-150z" />
<glyph unicode="&#x6b7;" horiz-adv-x="836" d="M-20 0v256h98q68 0 112 44q49 49 49 155v1101h358v-1101q0 -106 49 -155q44 -44 112 -44h98v-256h-251q-110 0 -187 109q-77 -109 -187 -109h-251zM202 1700v150h150v-150h-150zM327 1950v150h150v-150h-150zM452 1700v150h150v-150h-150z" />
<glyph unicode="&#x6b7;" horiz-adv-x="1828" d="M144 75q-1 138 63 230h358q-71 -102 -65 -230q5 -114 166 -148q130 -27 269 18q161 52 222 128q78 97 78 353v1130h358v-1130q0 -77 49 -126q44 -44 112 -44h94v-256h-247q-66 0 -77 16q-112 -212 -411 -294q-350 -97 -676 -12q-292 76 -293 365zM1200 1700v150h150v-150 h-150zM1325 1950v150h150v-150h-150zM1450 1700v150h150v-150h-150z" />
<glyph unicode="&#x6b8;" horiz-adv-x="769" d="M-20 0v256h98q68 0 112 44q49 49 49 155v1101h358v-1185q0 -182 -68 -279q-64 -92 -192 -92h-357zM174 -100h150v-150h-150v150zM299 -350h150v-150h-150v150zM424 -100h150v-150h-150v150z" />
<glyph unicode="&#x6b8;" horiz-adv-x="836" d="M-20 0v256h98q68 0 112 44q49 49 49 155v1101h358v-1101q0 -106 49 -155q44 -44 112 -44h98v-256h-251q-110 0 -187 109q-77 -109 -187 -109h-251zM204 -100h150v-150h-150v150zM329 -350h150v-150h-150v150zM454 -100h150v-150h-150v150z" />
<glyph unicode="&#x6b8;" horiz-adv-x="1828" d="M144 75q-1 138 63 230h358q-71 -102 -65 -230q5 -114 166 -148q130 -27 269 18q161 52 222 128q78 97 78 353v1130h358v-1130q0 -77 49 -126q44 -44 112 -44h94v-256h-247q-66 0 -77 16q-112 -212 -411 -294q-350 -97 -676 -12q-292 76 -293 365zM675 -400h150v-150h-150 v150zM800 -650h150v-150h-150v150zM925 -400h150v-150h-150v150z" />
<glyph unicode="&#x6b9;" horiz-adv-x="769" d="M-20 0v256h98q68 0 112 44q49 49 49 155v145h358v-229q0 -182 -68 -279q-64 -92 -192 -92h-357zM343 -205h150v-150h-150v150zM343 835v150h150v-150h-150z" />
<glyph unicode="&#x6b9;" horiz-adv-x="836" d="M-20 0v256h98q68 0 112 44q49 49 49 155v145h358v-145q0 -106 49 -155q44 -44 112 -44h98v-256h-251q-110 0 -187 109q-77 -109 -187 -109h-251zM343 -205h150v-150h-150v150zM343 835v150h150v-150h-150z" />
<glyph unicode="&#x6b9;" horiz-adv-x="1843" d="M126 6q0 140 40 316h358q-42 -160 -42 -293q0 -178 201 -252q55 -21 133 -21q56 0 117 17q214 56 269 215q33 95 33 214q0 164 -101 386h358q29 -45 37 -63q40 -97 50 -108q131 -160 236 -160h48v-257h-63q-168 1 -211 60q0 -98 -93 -261q-127 -220 -359 -265 q-177 -34 -317 -34q-192 0 -345 44q-349 99 -349 462zM675 635v150h150v-150h-150zM825 -675h150v-150h-150v150z" />
<glyph unicode="&#x6ba;" horiz-adv-x="769" d="M-20 0v256h98q68 0 112 44q49 49 49 155v145h358v-229q0 -182 -68 -279q-64 -92 -192 -92h-357zM343 835v150h150v-150h-150z" />
<glyph unicode="&#x6ba;" horiz-adv-x="836" d="M-20 0v256h98q68 0 112 44q49 49 49 155v145h358v-145q0 -106 49 -155q44 -44 112 -44h98v-256h-251q-110 0 -187 109q-77 -109 -187 -109h-251zM343 835v150h150v-150h-150z" />
<glyph unicode="&#x6bc;" horiz-adv-x="769" d="M-20 0v256h98q68 0 112 44q49 49 49 155v145h358v-229q0 -182 -68 -279q-64 -92 -192 -92h-357zM199 -80q0 92 64 156q63 63 155 63t156 -63q63 -64 63 -156t-63 -156q-64 -64 -156 -64t-155 64q-64 64 -64 156zM331 -80q0 -38 25 -63t62 -25t62 26q26 25 26 62 q0 36 -26 62q-25 25 -62 25t-62 -25t-25 -62zM343 835v150h150v-150h-150z" />
<glyph unicode="&#x6bc;" horiz-adv-x="836" d="M-20 0v256h98q68 0 112 44q49 49 49 155v145h358v-145q0 -106 49 -155q44 -44 112 -44h98v-256h-251q-110 0 -187 109q-77 -109 -187 -109h-251zM199 -30q0 92 64 156q63 63 155 63t156 -63q63 -64 63 -156t-63 -156q-64 -64 -156 -64t-155 64q-64 64 -64 156zM331 -30 q0 -38 25 -63t62 -25t62 26q26 25 26 62q0 36 -26 62q-25 25 -62 25t-62 -25t-25 -62zM343 835v150h150v-150h-150z" />
<glyph unicode="&#x6bc;" horiz-adv-x="1843" d="M126 6q0 140 40 316h358q-42 -160 -42 -293q0 -178 201 -252q55 -21 133 -21q56 0 117 17q214 56 269 215q33 95 33 214q0 164 -101 386h358q29 -45 37 -63q40 -97 50 -108q131 -160 236 -160h48v-257h-63q-168 1 -211 60q0 -98 -93 -261q-127 -220 -359 -265 q-177 -34 -317 -34q-192 0 -345 44q-349 99 -349 462zM675 -630q0 92 64 156q63 63 155 63t156 -63q63 -64 63 -156t-63 -156q-64 -64 -156 -64t-155 64q-64 64 -64 156zM675 635v150h150v-150h-150zM807 -630q0 -38 25 -63t62 -25t62 26q26 25 26 62q0 36 -26 62 q-25 25 -62 25t-62 -25t-25 -62z" />
<glyph unicode="&#x6bd;" horiz-adv-x="769" d="M-20 0v256h98q68 0 112 44q49 49 49 155v145h358v-229q0 -182 -68 -279q-64 -92 -192 -92h-357zM218 850v150h150v-150h-150zM343 1100v150h150v-150h-150zM468 850v150h150v-150h-150z" />
<glyph unicode="&#x6bd;" horiz-adv-x="836" d="M-20 0v256h98q68 0 112 44q49 49 49 155v145h358v-145q0 -106 49 -155q44 -44 112 -44h98v-256h-251q-110 0 -187 109q-77 -109 -187 -109h-251zM218 850v150h150v-150h-150zM343 1100v150h150v-150h-150zM468 850v150h150v-150h-150z" />
<glyph unicode="&#x6bd;" horiz-adv-x="1843" d="M126 6q0 140 40 316h358q-42 -160 -42 -293q0 -178 201 -252q55 -21 133 -21q56 0 117 17q214 56 269 215q33 95 33 214q0 164 -101 386h358q29 -45 37 -63q40 -97 50 -108q131 -160 236 -160h48v-257h-63q-168 1 -211 60q0 -98 -93 -261q-127 -220 -359 -265 q-177 -34 -317 -34q-192 0 -345 44q-349 99 -349 462zM575 635v150h150v-150h-150zM700 885v150h150v-150h-150zM825 635v150h150v-150h-150z" />
<glyph unicode="&#x6bf;" horiz-adv-x="1476" d="M-20 0v256h100q206 0 345 34q142 36 251 105q96 61 191 109q-75 25 -188 40q-94 12 -248 25q-71 6 -243 -4v256q72 7 147 8q242 0 433 -35q279 -50 519 -122v-256q-91 -32 -204 -98q-129 -76 -264 -168q-115 -79 -327 -116q-193 -34 -384 -34h-128zM500 -100h150v-150 h-150v150zM625 -350h150v-150h-150v150zM625 935v150h150v-150h-150zM750 -100h150v-150h-150v150z" />
<glyph unicode="&#x6bf;" horiz-adv-x="1476" d="M-20 0v256h100q206 0 345 34q142 36 251 105q96 61 191 109q-75 25 -188 40q-94 12 -248 25q-71 6 -243 -4v256q72 7 147 8q242 0 433 -35q279 -50 519 -122v-256l-47 -18q22 -49 44 -74q59 -68 146 -68h66v-256h-86q-204 0 -311 117q-52 57 -99 152q-82 -59 -181 -119 q-136 -83 -327 -116q-194 -34 -384 -34h-128zM500 -100h150v-150h-150v150zM625 -350h150v-150h-150v150zM625 935v150h150v-150h-150zM750 -100h150v-150h-150v150z" />
<glyph unicode="&#x6bf;" horiz-adv-x="1476" d="M157 551v256q271 63 471 63q352 0 642 -38v-256q-14 1 -27 1q-16 1 -31 1q0 -60 73 -203q61 -119 145 -119h66v-256h-86q-158 0 -279 149q-71 88 -131 212q-50 107 -68 179q-109 -35 -192 -102q-203 -163 -203 -363q0 -121 103 -227q90 -92 327 -92q301 0 507 153v-275 q-164 -134 -502 -134q-437 1 -637 199q-156 154 -156 376q0 179 140 350q102 125 300 203q-84 3 -232 -17q-135 -19 -230 -60zM625 1035v150h150v-150h-150zM630 60v150h150v-150h-150zM755 -40h150v-150h-150v150zM880 60v150h150v-150h-150z" />
<glyph unicode="&#x6ce;" horiz-adv-x="769" d="M-20 0v256h98q68 0 112 44q49 49 49 155v145h358v-229q0 -182 -68 -279q-64 -92 -192 -92h-357zM109 1088h179l130 -195l130 195h179l-195 -326h-228zM218 -190h150v-150h-150v150zM468 -190h150v-150h-150v150z" />
<glyph unicode="&#x6ce;" horiz-adv-x="836" d="M-20 0v256h98q68 0 112 44q49 49 49 155v145h358v-145q0 -106 49 -155q44 -44 112 -44h98v-256h-251q-110 0 -187 109q-77 -109 -187 -109h-251zM109 1088h179l130 -195l130 195h179l-195 -326h-228zM218 -190h150v-150h-150v150zM468 -190h150v-150h-150v150z" />
<glyph unicode="&#x6ce;" horiz-adv-x="2072" d="M130 124q-1 139 63 230h358q-70 -101 -65 -230q2 -68 130 -110q51 -17 212 -17q186 0 316 35q146 40 146 74q-1 26 -27 43q-54 37 -65 48q-31 37 -31 121q0 98 48 145q74 73 124 96q76 35 225 35q257 0 360 -184q86 -154 139 -154h29v-256h-61q-171 0 -281 180 q-90 147 -158 147q-18 0 -25 -3q-45 -17 -45 -55q0 -44 57 -68q66 -27 66 -147q0 -179 -425 -272q-190 -41 -372 -41q-341 -1 -425 29q-292 105 -293 354zM441 938h179l130 -195l130 195h179l-195 -326h-228z" />
<glyph unicode="&#x6d5;" horiz-adv-x="1242" d="M133 285q0 190 216 328q106 68 308 83q-5 33 -5 54h358q2 -200 37 -342q20 -82 61 -108q68 -44 79 -44h75v-256h-224q-92 0 -163 34q-66 31 -83 66q-108 -65 -344 -64q-56 0 -114 15q-201 48 -201 234zM491 327q0 -48 68 -48q97 0 144 38q-14 40 -22 91q-4 27 -9 50 q-95 -10 -136 -42q-45 -35 -45 -89z" />
<glyph unicode="&#x67b;" horiz-adv-x="2058" arabic-form="isolated" d="M130 383q-1 138 63 230h358q-51 -94 -51 -184q0 -91 189 -157q72 -25 156 -25q205 0 361 47q242 71 292 159q64 113 30 216h358q50 -256 -61 -396q-114 -142 -339 -204q-282 -77 -666 -79q-234 -1 -360 28q-329 77 -330 365zM895 -100h150v-150h-150v150zM895 -350h150 v-150h-150v150z" />
<glyph unicode="&#x67b;" horiz-adv-x="2168" arabic-form="final" d="M130 383q-1 138 63 230h358q-51 -94 -51 -184q0 -91 189 -157q72 -25 156 -25q205 0 361 47q243 73 292 159q64 113 30 216h358q16 -75 16 -120q0 -147 54 -224q50 -69 157 -69h75v-256h-130q-270 0 -372 162q-43 -52 -200 -93q-291 -77 -666 -79q-234 -1 -360 28 q-329 77 -330 365zM895 -100h150v-150h-150v150zM895 -350h150v-150h-150v150z" />
<glyph unicode="&#x67b;" horiz-adv-x="769" arabic-form="initial" d="M-20 0v256h98q68 0 112 44q49 49 49 155v145h358v-229q0 -182 -68 -279q-64 -92 -192 -92h-357zM338 -100h150v-150h-150v150zM338 -350h150v-150h-150v150z" />
<glyph unicode="&#x67b;" horiz-adv-x="836" arabic-form="medial" d="M-20 0v256h98q68 0 112 44q49 49 49 155v145h358v-145q0 -106 49 -155q44 -44 112 -44h98v-256h-251q-110 0 -187 109q-77 -109 -187 -109h-251zM338 -100h150v-150h-150v150zM338 -350h150v-150h-150v150z" />
<glyph unicode="&#x67e;" horiz-adv-x="2058" arabic-form="isolated" d="M130 383q-1 138 63 230h358q-51 -94 -51 -184q0 -91 189 -157q72 -25 156 -25q205 0 361 47q242 71 292 159q64 113 30 216h358q50 -256 -61 -396q-114 -142 -339 -204q-282 -77 -666 -79q-234 -1 -360 28q-329 77 -330 365zM775 -100h150v-150h-150v150zM900 -350h150 v-150h-150v150zM1025 -100h150v-150h-150v150z" />
<glyph unicode="&#x67e;" horiz-adv-x="2168" arabic-form="final" d="M130 383q-1 138 63 230h358q-51 -94 -51 -184q0 -91 189 -157q72 -25 156 -25q205 0 361 47q243 73 292 159q64 113 30 216h358q16 -75 16 -120q0 -147 54 -224q50 -69 157 -69h75v-256h-130q-270 0 -372 162q-43 -52 -200 -93q-291 -77 -666 -79q-234 -1 -360 28 q-329 77 -330 365zM775 -100h150v-150h-150v150zM900 -350h150v-150h-150v150zM1025 -100h150v-150h-150v150z" />
<glyph unicode="&#x67e;" horiz-adv-x="769" arabic-form="initial" d="M-20 0v256h98q68 0 112 44q49 49 49 155v145h358v-229q0 -182 -68 -279q-64 -92 -192 -92h-357zM218 -100h150v-150h-150v150zM343 -350h150v-150h-150v150zM468 -100h150v-150h-150v150z" />
<glyph unicode="&#x67e;" horiz-adv-x="836" arabic-form="medial" d="M-20 0v256h98q68 0 112 44q49 49 49 155v145h358v-145q0 -106 49 -155q44 -44 112 -44h98v-256h-251q-110 0 -187 109q-77 -109 -187 -109h-251zM218 -100h150v-150h-150v150zM343 -350h150v-150h-150v150zM468 -100h150v-150h-150v150z" />
<glyph unicode="&#x680;" horiz-adv-x="2058" arabic-form="isolated" d="M130 383q-1 138 63 230h358q-51 -94 -51 -184q0 -91 189 -157q72 -25 156 -25q205 0 361 47q242 71 292 159q64 113 30 216h358q50 -256 -61 -396q-114 -142 -339 -204q-282 -77 -666 -79q-234 -1 -360 28q-329 77 -330 365zM775 -100h150v-150h-150v150zM775 -350h150 v-150h-150v150zM1025 -100h150v-150h-150v150zM1025 -350h150v-150h-150v150z" />
<glyph unicode="&#x680;" horiz-adv-x="2168" arabic-form="final" d="M130 383q-1 138 63 230h358q-51 -94 -51 -184q0 -91 189 -157q72 -25 156 -25q205 0 361 47q243 73 292 159q64 113 30 216h358q16 -75 16 -120q0 -147 54 -224q50 -69 157 -69h75v-256h-130q-270 0 -372 162q-43 -52 -200 -93q-291 -77 -666 -79q-234 -1 -360 28 q-329 77 -330 365zM775 -100h150v-150h-150v150zM775 -350h150v-150h-150v150zM1025 -100h150v-150h-150v150zM1025 -350h150v-150h-150v150z" />
<glyph unicode="&#x680;" horiz-adv-x="769" arabic-form="initial" d="M-20 0v256h98q68 0 112 44q49 49 49 155v145h358v-229q0 -182 -68 -279q-64 -92 -192 -92h-357zM218 -100h150v-150h-150v150zM218 -350h150v-150h-150v150zM468 -100h150v-150h-150v150zM468 -350h150v-150h-150v150z" />
<glyph unicode="&#x680;" horiz-adv-x="836" arabic-form="medial" d="M-20 0v256h98q68 0 112 44q49 49 49 155v145h358v-145q0 -106 49 -155q44 -44 112 -44h98v-256h-251q-110 0 -187 109q-77 -109 -187 -109h-251zM218 -100h150v-150h-150v150zM218 -350h150v-150h-150v150zM468 -100h150v-150h-150v150zM468 -350h150v-150h-150v150z" />
<glyph unicode="&#x67a;" horiz-adv-x="2058" arabic-form="isolated" d="M130 383q-1 138 63 230h358q-51 -94 -51 -184q0 -91 189 -157q72 -25 156 -25q205 0 361 47q242 71 292 159q64 113 30 216h358q50 -256 -61 -396q-114 -142 -339 -204q-282 -77 -666 -79q-234 -1 -360 28q-329 77 -330 365zM895 760v150h150v-150h-150zM895 1010v150 h150v-150h-150z" />
<glyph unicode="&#x67a;" horiz-adv-x="2168" arabic-form="final" d="M130 383q-1 138 63 230h358q-51 -94 -51 -184q0 -91 189 -157q72 -25 156 -25q205 0 361 47q243 73 292 159q64 113 30 216h358q16 -75 16 -120q0 -147 54 -224q50 -69 157 -69h75v-256h-130q-270 0 -372 162q-43 -52 -200 -93q-291 -77 -666 -79q-234 -1 -360 28 q-329 77 -330 365zM895 760v150h150v-150h-150zM895 1010v150h150v-150h-150z" />
<glyph unicode="&#x67a;" horiz-adv-x="769" arabic-form="initial" d="M-20 0v256h98q68 0 112 44q49 49 49 155v145h358v-229q0 -182 -68 -279q-64 -92 -192 -92h-357zM338 910v150h150v-150h-150zM338 1160v150h150v-150h-150z" />
<glyph unicode="&#x67a;" horiz-adv-x="836" arabic-form="medial" d="M-20 0v256h98q68 0 112 44q49 49 49 155v145h358v-145q0 -106 49 -155q44 -44 112 -44h98v-256h-251q-110 0 -187 109q-77 -109 -187 -109h-251zM338 910v150h150v-150h-150zM338 1160v150h150v-150h-150z" />
<glyph unicode="&#x67f;" horiz-adv-x="2058" arabic-form="isolated" d="M130 383q-1 138 63 230h358q-51 -94 -51 -184q0 -91 189 -157q72 -25 156 -25q205 0 361 47q242 71 292 159q64 113 30 216h358q50 -256 -61 -396q-114 -142 -339 -204q-282 -77 -666 -79q-234 -1 -360 28q-329 77 -330 365zM775 760v150h150v-150h-150zM775 1010v150 h150v-150h-150zM1025 760v150h150v-150h-150zM1025 1010v150h150v-150h-150z" />
<glyph unicode="&#x67f;" horiz-adv-x="2168" arabic-form="final" d="M130 383q-1 138 63 230h358q-51 -94 -51 -184q0 -91 189 -157q72 -25 156 -25q205 0 361 47q243 73 292 159q64 113 30 216h358q16 -75 16 -120q0 -147 54 -224q50 -69 157 -69h75v-256h-130q-270 0 -372 162q-43 -52 -200 -93q-291 -77 -666 -79q-234 -1 -360 28 q-329 77 -330 365zM775 760v150h150v-150h-150zM775 1010v150h150v-150h-150zM1025 760v150h150v-150h-150zM1025 1010v150h150v-150h-150z" />
<glyph unicode="&#x67f;" horiz-adv-x="769" arabic-form="initial" d="M-20 0v256h98q68 0 112 44q49 49 49 155v145h358v-229q0 -182 -68 -279q-64 -92 -192 -92h-357zM218 910v150h150v-150h-150zM218 1160v150h150v-150h-150zM468 910v150h150v-150h-150zM468 1160v150h150v-150h-150z" />
<glyph unicode="&#x67f;" horiz-adv-x="836" arabic-form="medial" d="M-20 0v256h98q68 0 112 44q49 49 49 155v145h358v-145q0 -106 49 -155q44 -44 112 -44h98v-256h-251q-110 0 -187 109q-77 -109 -187 -109h-251zM218 910v150h150v-150h-150zM218 1160v150h150v-150h-150zM468 910v150h150v-150h-150zM468 1160v150h150v-150h-150z" />
<glyph unicode="&#x679;" horiz-adv-x="2058" arabic-form="isolated" d="M130 383q-1 138 63 230h358q-51 -94 -51 -184q0 -91 189 -157q72 -25 156 -25q205 0 361 47q242 71 292 159q64 113 30 216h358q50 -256 -61 -396q-114 -142 -339 -204q-282 -77 -666 -79q-234 -1 -360 28q-329 77 -330 365zM710 704v135h60v388h136v-280q75 84 157 84 t108 -19q68 -50 68 -125q0 -92 -67 -144q-51 -39 -170 -39h-175h-117zM946 839h33q50 0 90 13q38 14 38 35q0 37 -30 35q-21 -3 -47 -14q-49 -22 -84 -69z" />
<glyph unicode="&#x679;" horiz-adv-x="2168" arabic-form="final" d="M130 383q-1 138 63 230h358q-51 -94 -51 -184q0 -91 189 -157q72 -25 156 -25q205 0 361 47q243 73 292 159q64 113 30 216h358q16 -75 16 -120q0 -147 54 -224q50 -69 157 -69h75v-256h-130q-270 0 -372 162q-43 -52 -200 -93q-291 -77 -666 -79q-234 -1 -360 28 q-329 77 -330 365zM710 704v135h60v388h136v-280q75 84 157 84t108 -19q68 -50 68 -125q0 -92 -67 -144q-51 -39 -170 -39h-175h-117zM946 839h33q50 0 90 13q38 14 38 35q0 37 -30 35q-21 -3 -47 -14q-49 -22 -84 -69z" />
<glyph unicode="&#x679;" horiz-adv-x="769" arabic-form="initial" d="M-20 0v256h98q68 0 112 44q49 49 49 155v145h358v-229q0 -182 -68 -279q-64 -92 -192 -92h-357zM153 854v135h60v388h136v-280q75 84 157 84t108 -19q68 -50 68 -125q0 -92 -67 -144q-51 -39 -170 -39h-175h-117zM389 989h33q50 0 90 13q38 14 38 35q0 37 -30 35 q-21 -3 -47 -14q-49 -22 -84 -69z" />
<glyph unicode="&#x679;" horiz-adv-x="836" arabic-form="medial" d="M-20 0v256h98q68 0 112 44q49 49 49 155v145h358v-145q0 -106 49 -155q44 -44 112 -44h98v-256h-251q-110 0 -187 109q-77 -109 -187 -109h-251zM153 854v135h60v388h136v-280q75 84 157 84t108 -19q68 -50 68 -125q0 -92 -67 -144q-51 -39 -170 -39h-175h-117zM389 989 h33q50 0 90 13q38 14 38 35q0 37 -30 35q-21 -3 -47 -14q-49 -22 -84 -69z" />
<glyph unicode="&#x6a4;" horiz-adv-x="2379" arabic-form="isolated" d="M130 314q0 112 63 230h358q-73 -135 -51 -184q46 -102 189 -127q134 -25 330 -25q232 0 508 47q231 39 268 99q-55 -20 -122 -20q-222 4 -316 86q-98 84 -98 216q0 52 8 96q25 160 173 217q109 42 262 43q236 0 339 -57q81 -45 142 -209q33 -89 33 -262q0 -186 -113 -311 q-95 -105 -296 -143q-313 -59 -813 -59q-496 -1 -534 8q-330 77 -330 355zM1525 1210v150h150v-150h-150zM1617 656q0 -40 35 -69q22 -18 70 -18q52 0 81 22q36 28 36 66q0 59 -50 88q-28 16 -71 15q-47 0 -75 -29q-26 -26 -26 -75zM1650 1460v150h150v-150h-150zM1775 1210 v150h150v-150h-150z" />
<glyph unicode="&#x6a4;" horiz-adv-x="2439" arabic-form="final" d="M130 314q-1 138 63 230h358q-51 -94 -51 -184q0 -70 189 -136q72 -25 330 -25q345 0 409 10q-13 12 -24 25q-140 160 -140 334q0 103 24 168q49 134 164 198q104 58 250 58q198 0 339 -66q87 -41 139 -158q36 -81 36 -236q0 -131 -88 -261q125 -15 284 -15h47v-256h-107 q-193 0 -352 15q-64 5 -122 14l-71 -29q-100 -56 -813 -58q-405 -1 -534 28q-329 75 -330 344zM1525 1210v150h150v-150h-150zM1617 575q0 -101 67 -164q26 -25 80 -48q75 95 75 209q0 74 -50 134q-25 30 -71 30q-48 0 -75 -42q-26 -41 -26 -119zM1650 1460v150h150v-150 h-150zM1775 1210v150h150v-150h-150z" />
<glyph unicode="&#x6a4;" horiz-adv-x="1341" arabic-form="initial" d="M-20 0v256h576q59 0 96 9q82 20 105 89q-1 -6 -122 -5q-235 0 -316 71q-98 84 -98 216q0 52 8 96q28 161 173 217q109 42 262 43q233 1 339 -57q81 -45 142 -209q33 -89 33 -262q0 -151 -113 -311q-47 -66 -189 -117q-101 -36 -240 -36h-656zM475 1210v150h150v-150h-150 zM579 656q0 -40 35 -69q22 -18 70 -18q52 0 81 22q36 28 36 66q0 59 -50 88q-28 16 -71 15q-47 0 -75 -29q-26 -26 -26 -75zM600 1460v150h150v-150h-150zM725 1210v150h150v-150h-150z" />
<glyph unicode="&#x6a4;" horiz-adv-x="1474" arabic-form="medial" d="M-20 0v256h47q196 0 363 20q-167 130 -167 256q0 155 36 236q52 117 139 158q141 66 339 66t339 -66q87 -41 139 -158q36 -81 36 -236q0 -126 -167 -256q167 -20 363 -20h47v-256h-107q-193 0 -352 15q-196 19 -298 69q-102 -50 -298 -69q-159 -15 -352 -15h-107z M537 1210v150h150v-150h-150zM600 572q0 -104 137 -156q137 52 137 156q0 78 -46 133q-25 30 -91 30t-91 -30q-46 -55 -46 -133zM662 1460v150h150v-150h-150zM787 1210v150h150v-150h-150z" />
<glyph unicode="&#x6a6;" horiz-adv-x="2379" arabic-form="isolated" d="M130 314q0 112 63 230h358q-73 -135 -51 -184q46 -102 189 -127q134 -25 330 -25q232 0 508 47q231 39 268 99q-55 -20 -122 -20q-222 4 -316 86q-98 84 -98 216q0 52 8 96q25 160 173 217q109 42 262 43q236 0 339 -57q81 -45 142 -209q33 -89 33 -262q0 -186 -113 -311 q-95 -105 -296 -143q-313 -59 -813 -59q-496 -1 -534 8q-330 77 -330 355zM1525 1210v150h150v-150h-150zM1525 1460v150h150v-150h-150zM1617 656q0 -40 35 -69q22 -18 70 -18q52 0 81 22q36 28 36 66q0 59 -50 88q-28 16 -71 15q-47 0 -75 -29q-26 -26 -26 -75zM1775 1210 v150h150v-150h-150zM1775 1460v150h150v-150h-150z" />
<glyph unicode="&#x6a6;" horiz-adv-x="2439" arabic-form="final" d="M130 314q-1 138 63 230h358q-51 -94 -51 -184q0 -70 189 -136q72 -25 330 -25q345 0 409 10q-13 12 -24 25q-140 160 -140 334q0 103 24 168q49 134 164 198q104 58 250 58q198 0 339 -66q87 -41 139 -158q36 -81 36 -236q0 -131 -88 -261q125 -15 284 -15h47v-256h-107 q-193 0 -352 15q-64 5 -122 14l-71 -29q-100 -56 -813 -58q-405 -1 -534 28q-329 75 -330 344zM1525 1210v150h150v-150h-150zM1525 1460v150h150v-150h-150zM1617 575q0 -101 67 -164q26 -25 80 -48q75 95 75 209q0 74 -50 134q-25 30 -71 30q-48 0 -75 -42 q-26 -41 -26 -119zM1775 1210v150h150v-150h-150zM1775 1460v150h150v-150h-150z" />
<glyph unicode="&#x6a6;" horiz-adv-x="1341" arabic-form="initial" d="M-20 0v256h576q59 0 96 9q82 20 105 89q-1 -6 -122 -5q-235 0 -316 71q-98 84 -98 216q0 52 8 96q28 161 173 217q109 42 262 43q233 1 339 -57q81 -45 142 -209q33 -89 33 -262q0 -151 -113 -311q-47 -66 -189 -117q-101 -36 -240 -36h-656zM475 1210v150h150v-150h-150 zM475 1460v150h150v-150h-150zM579 656q0 -40 35 -69q22 -18 70 -18q52 0 81 22q36 28 36 66q0 59 -50 88q-28 16 -71 15q-47 0 -75 -29q-26 -26 -26 -75zM725 1210v150h150v-150h-150zM725 1460v150h150v-150h-150z" />
<glyph unicode="&#x6a6;" horiz-adv-x="1474" arabic-form="medial" d="M-20 0v256h47q196 0 363 20q-167 130 -167 256q0 155 36 236q52 117 139 158q141 66 339 66t339 -66q87 -41 139 -158q36 -81 36 -236q0 -126 -167 -256q167 -20 363 -20h47v-256h-107q-193 0 -352 15q-196 19 -298 69q-102 -50 -298 -69q-159 -15 -352 -15h-107z M537 1210v150h150v-150h-150zM537 1460v150h150v-150h-150zM600 572q0 -104 137 -156q137 52 137 156q0 78 -46 133q-25 30 -91 30t-91 -30q-46 -55 -46 -133zM787 1210v150h150v-150h-150zM787 1460v150h150v-150h-150z" />
<glyph unicode="&#x684;" horiz-adv-x="1476" arabic-form="isolated" d="M157 551v256q271 63 471 63q352 0 642 -38v-256q-335 19 -530 -138q-203 -163 -203 -363q0 -121 103 -227q90 -92 327 -92q301 0 507 153v-275q-164 -134 -502 -134q-437 1 -637 199q-156 154 -156 376q0 179 140 350q102 125 300 203q-84 3 -232 -17q-135 -19 -230 -60z M920 -60v150h150v-150h-150zM920 190v150h150v-150h-150z" />
<glyph unicode="&#x684;" horiz-adv-x="1476" arabic-form="final" d="M157 551v256q271 63 471 63q352 0 642 -38v-256q-14 1 -27 1q-16 1 -31 1q0 -60 73 -203q61 -119 145 -119h66v-256h-86q-158 0 -279 149q-71 88 -131 212q-50 107 -68 179q-109 -35 -192 -102q-203 -163 -203 -363q0 -121 103 -227q90 -92 327 -92q301 0 507 153v-275 q-164 -134 -502 -134q-437 1 -637 199q-156 154 -156 376q0 179 140 350q102 125 300 203q-84 3 -232 -17q-135 -19 -230 -60zM770 40h150v-150h-150v150zM770 140v150h150v-150h-150z" />
<glyph unicode="&#x684;" horiz-adv-x="1476" arabic-form="initial" d="M-20 0v256h100q206 0 345 34q142 36 251 105q96 61 191 109q-75 25 -188 40q-94 12 -248 25q-71 6 -243 -4v256q72 7 147 8q242 0 433 -35q279 -50 519 -122v-256q-91 -32 -204 -98q-129 -76 -264 -168q-115 -79 -327 -116q-193 -34 -384 -34h-128zM620 -100h150v-150 h-150v150zM620 -350h150v-150h-150v150z" />
<glyph unicode="&#x684;" horiz-adv-x="1476" arabic-form="medial" d="M-20 0v256h100q206 0 345 34q142 36 251 105q96 61 191 109q-75 25 -188 40q-94 12 -248 25q-71 6 -243 -4v256q72 7 147 8q242 0 433 -35q279 -50 519 -122v-256l-47 -18q22 -49 44 -74q59 -68 146 -68h66v-256h-86q-204 0 -311 117q-52 57 -99 152q-82 -59 -181 -119 q-136 -83 -327 -116q-194 -34 -384 -34h-128zM620 -100h150v-150h-150v150zM620 -350h150v-150h-150v150z" />
<glyph unicode="&#x683;" horiz-adv-x="1476" arabic-form="isolated" d="M157 551v256q271 63 471 63q352 0 642 -38v-256q-335 19 -530 -138q-203 -163 -203 -363q0 -121 103 -227q90 -92 327 -92q301 0 507 153v-275q-164 -134 -502 -134q-437 1 -637 199q-156 154 -156 376q0 179 140 350q102 125 300 203q-84 3 -232 -17q-135 -19 -230 -60z M800 50v150h150v-150h-150zM1050 50v150h150v-150h-150z" />
<glyph unicode="&#x683;" horiz-adv-x="1476" arabic-form="final" d="M157 551v256q271 63 471 63q352 0 642 -38v-256q-14 1 -27 1q-16 1 -31 1q0 -60 73 -203q61 -119 145 -119h66v-256h-86q-158 0 -279 149q-71 88 -131 212q-50 107 -68 179q-109 -35 -192 -102q-203 -163 -203 -363q0 -121 103 -227q90 -92 327 -92q301 0 507 153v-275 q-164 -134 -502 -134q-437 1 -637 199q-156 154 -156 376q0 179 140 350q102 125 300 203q-84 3 -232 -17q-135 -19 -230 -60zM675 -25v150h150v-150h-150zM925 -25v150h150v-150h-150z" />
<glyph unicode="&#x683;" horiz-adv-x="1476" arabic-form="initial" d="M-20 0v256h100q206 0 345 34q142 36 251 105q96 61 191 109q-75 25 -188 40q-94 12 -248 25q-71 6 -243 -4v256q72 7 147 8q242 0 433 -35q279 -50 519 -122v-256q-91 -32 -204 -98q-129 -76 -264 -168q-115 -79 -327 -116q-193 -34 -384 -34h-128zM500 -90h150v-150 h-150v150zM750 -90h150v-150h-150v150z" />
<glyph unicode="&#x683;" horiz-adv-x="1476" arabic-form="medial" d="M-20 0v256h100q206 0 345 34q142 36 251 105q96 61 191 109q-75 25 -188 40q-94 12 -248 25q-71 6 -243 -4v256q72 7 147 8q242 0 433 -35q279 -50 519 -122v-256l-47 -18q22 -49 44 -74q59 -68 146 -68h66v-256h-86q-204 0 -311 117q-52 57 -99 152q-82 -59 -181 -119 q-136 -83 -327 -116q-194 -34 -384 -34h-128zM500 -90h150v-150h-150v150zM750 -90h150v-150h-150v150z" />
<glyph unicode="&#x686;" horiz-adv-x="1476" arabic-form="isolated" d="M157 551v256q271 63 471 63q352 0 642 -38v-256q-335 19 -530 -138q-203 -163 -203 -363q0 -121 103 -227q90 -92 327 -92q301 0 507 153v-275q-164 -134 -502 -134q-437 1 -637 199q-156 154 -156 376q0 179 140 350q102 125 300 203q-84 3 -232 -17q-135 -19 -230 -60z M800 140v150h150v-150h-150zM925 40h150v-150h-150v150zM1050 140v150h150v-150h-150z" />
<glyph unicode="&#x686;" horiz-adv-x="1476" arabic-form="final" d="M157 551v256q271 63 471 63q352 0 642 -38v-256q-14 1 -27 1q-16 1 -31 1q0 -60 73 -203q61 -119 145 -119h66v-256h-86q-158 0 -279 149q-71 88 -131 212q-50 107 -68 179q-109 -35 -192 -102q-203 -163 -203 -363q0 -121 103 -227q90 -92 327 -92q301 0 507 153v-275 q-164 -134 -502 -134q-437 1 -637 199q-156 154 -156 376q0 179 140 350q102 125 300 203q-84 3 -232 -17q-135 -19 -230 -60zM630 60v150h150v-150h-150zM755 -40h150v-150h-150v150zM880 60v150h150v-150h-150z" />
<glyph unicode="&#x686;" horiz-adv-x="1476" arabic-form="initial" d="M-20 0v256h100q206 0 345 34q142 36 251 105q96 61 191 109q-75 25 -188 40q-94 12 -248 25q-71 6 -243 -4v256q72 7 147 8q242 0 433 -35q279 -50 519 -122v-256q-91 -32 -204 -98q-129 -76 -264 -168q-115 -79 -327 -116q-193 -34 -384 -34h-128zM500 -100h150v-150 h-150v150zM625 -350h150v-150h-150v150zM750 -100h150v-150h-150v150z" />
<glyph unicode="&#x686;" horiz-adv-x="1476" arabic-form="medial" d="M-20 0v256h100q206 0 345 34q142 36 251 105q96 61 191 109q-75 25 -188 40q-94 12 -248 25q-71 6 -243 -4v256q72 7 147 8q242 0 433 -35q279 -50 519 -122v-256l-47 -18q22 -49 44 -74q59 -68 146 -68h66v-256h-86q-204 0 -311 117q-52 57 -99 152q-82 -59 -181 -119 q-136 -83 -327 -116q-194 -34 -384 -34h-128zM500 -100h150v-150h-150v150zM625 -350h150v-150h-150v150zM750 -100h150v-150h-150v150z" />
<glyph unicode="&#x687;" horiz-adv-x="1476" arabic-form="isolated" d="M157 551v256q271 63 471 63q352 0 642 -38v-256q-335 19 -530 -138q-203 -163 -203 -363q0 -121 103 -227q90 -92 327 -92q301 0 507 153v-275q-164 -134 -502 -134q-437 1 -637 199q-156 154 -156 376q0 179 140 350q102 125 300 203q-84 3 -232 -17q-135 -19 -230 -60z M800 65h150v-150h-150v150zM800 165v150h150v-150h-150zM1050 65h150v-150h-150v150zM1050 165v150h150v-150h-150z" />
<glyph unicode="&#x687;" horiz-adv-x="1476" arabic-form="final" d="M157 551v256q271 63 471 63q352 0 642 -38v-256q-14 1 -27 1q-16 1 -31 1q0 -60 73 -203q61 -119 145 -119h66v-256h-86q-158 0 -279 149q-71 88 -131 212q-50 107 -68 179q-109 -35 -192 -102q-203 -163 -203 -363q0 -121 103 -227q90 -92 327 -92q301 0 507 153v-275 q-164 -134 -502 -134q-437 1 -637 199q-156 154 -156 376q0 179 140 350q102 125 300 203q-84 3 -232 -17q-135 -19 -230 -60zM650 5h150v-150h-150v150zM650 105v150h150v-150h-150zM900 5h150v-150h-150v150zM900 105v150h150v-150h-150z" />
<glyph unicode="&#x687;" horiz-adv-x="1476" arabic-form="initial" d="M-20 0v256h100q206 0 345 34q142 36 251 105q96 61 191 109q-75 25 -188 40q-94 12 -248 25q-71 6 -243 -4v256q72 7 147 8q242 0 433 -35q279 -50 519 -122v-256q-91 -32 -204 -98q-129 -76 -264 -168q-115 -79 -327 -116q-193 -34 -384 -34h-128zM500 -100h150v-150 h-150v150zM500 -350h150v-150h-150v150zM750 -100h150v-150h-150v150zM750 -350h150v-150h-150v150z" />
<glyph unicode="&#x687;" horiz-adv-x="1476" arabic-form="medial" d="M-20 0v256h100q206 0 345 34q142 36 251 105q96 61 191 109q-75 25 -188 40q-94 12 -248 25q-71 6 -243 -4v256q72 7 147 8q242 0 433 -35q279 -50 519 -122v-256l-47 -18q22 -49 44 -74q59 -68 146 -68h66v-256h-86q-204 0 -311 117q-52 57 -99 152q-82 -59 -181 -119 q-136 -83 -327 -116q-194 -34 -384 -34h-128zM500 -100h150v-150h-150v150zM500 -350h150v-150h-150v150zM750 -100h150v-150h-150v150zM750 -350h150v-150h-150v150z" />
<glyph unicode="&#x68d;" horiz-adv-x="1051" arabic-form="isolated" d="M125 0v255q157 -61 266 -33q175 46 200 127q27 87 -46 226q-62 121 -217 275h369q130 -164 158 -215q129 -228 50 -431q-74 -189 -440 -235q-193 -24 -340 31zM359 -150h150v-150h-150v150zM609 -150h150v-150h-150v150z" />
<glyph unicode="&#x68d;" horiz-adv-x="1183" arabic-form="final" d="M125 0v255q157 -61 266 -33q174 45 200 127q27 87 -46 226q-62 121 -217 275h369q130 -164 158 -215q46 -82 66 -161q27 -111 90 -174q44 -44 117 -44h75v-256h-130q-182 0 -236 105q-125 -105 -372 -136q-193 -24 -340 31zM359 -150h150v-150h-150v150zM609 -150h150 v-150h-150v150z" />
<glyph unicode="&#x68c;" horiz-adv-x="1051" arabic-form="isolated" d="M125 0v255q157 -61 266 -33q175 46 200 127q27 87 -46 226q-62 121 -217 275h369q130 -164 158 -215q129 -228 50 -431q-74 -189 -440 -235q-193 -24 -340 31zM310 1050v150h150v-150h-150zM560 1050v150h150v-150h-150z" />
<glyph unicode="&#x68c;" horiz-adv-x="1183" arabic-form="final" d="M125 0v255q157 -61 266 -33q174 45 200 127q27 87 -46 226q-62 121 -217 275h369q130 -164 158 -215q46 -82 66 -161q27 -111 90 -174q44 -44 117 -44h75v-256h-130q-182 0 -236 105q-125 -105 -372 -136q-193 -24 -340 31zM310 1050v150h150v-150h-150zM560 1050v150 h150v-150h-150z" />
<glyph unicode="&#x68e;" horiz-adv-x="1051" arabic-form="isolated" d="M125 0v255q157 -61 266 -33q175 46 200 127q27 87 -46 226q-62 121 -217 275h369q130 -164 158 -215q129 -228 50 -431q-74 -189 -440 -235q-193 -24 -340 31zM310 1050v150h150v-150h-150zM435 1300v150h150v-150h-150zM560 1050v150h150v-150h-150z" />
<glyph unicode="&#x68e;" horiz-adv-x="1183" arabic-form="final" d="M125 0v255q157 -61 266 -33q174 45 200 127q27 87 -46 226q-62 121 -217 275h369q130 -164 158 -215q46 -82 66 -161q27 -111 90 -174q44 -44 117 -44h75v-256h-130q-182 0 -236 105q-125 -105 -372 -136q-193 -24 -340 31zM310 1050v150h150v-150h-150zM435 1300v150 h150v-150h-150zM560 1050v150h150v-150h-150z" />
<glyph unicode="&#x688;" horiz-adv-x="1051" arabic-form="isolated" d="M125 0v255q157 -61 266 -33q175 46 200 127q27 87 -46 226q-62 121 -217 275h369q130 -164 158 -215q129 -228 50 -431q-74 -189 -440 -235q-193 -24 -340 31zM245 1004v135h60v388h136v-280q75 84 157 84t108 -19q68 -50 68 -125q0 -92 -67 -144q-51 -39 -170 -39h-175 h-117zM481 1139h33q50 0 90 13q38 14 38 35q0 37 -30 35q-21 -3 -47 -14q-49 -22 -84 -69z" />
<glyph unicode="&#x688;" horiz-adv-x="1183" arabic-form="final" d="M125 0v255q157 -61 266 -33q174 45 200 127q27 87 -46 226q-62 121 -217 275h369q130 -164 158 -215q46 -82 66 -161q27 -111 90 -174q44 -44 117 -44h75v-256h-130q-182 0 -236 105q-125 -105 -372 -136q-193 -24 -340 31zM245 1004v135h60v388h136v-280q75 84 157 84 t108 -19q68 -50 68 -125q0 -92 -67 -144q-51 -39 -170 -39h-175h-117zM481 1139h33q50 0 90 13q38 14 38 35q0 37 -30 35q-21 -3 -47 -14q-49 -22 -84 -69z" />
<glyph unicode="&#x698;" horiz-adv-x="1179" arabic-form="isolated" d="M-85 -244q309 0 465 68q152 65 233 176q73 103 71 284q0 145 -52 266h358q50 -150 50 -266q0 -265 -88 -396q-127 -189 -350 -287q-230 -101 -687 -101v256zM600 860v150h150v-150h-150zM725 1110v150h150v-150h-150zM850 860v150h150v-150h-150z" />
<glyph unicode="&#x698;" horiz-adv-x="1274" arabic-form="final" d="M-85 -244q309 0 465 68q154 67 233 176q73 101 71 284q0 145 -52 266h358q11 -34 20 -66q34 -125 92 -184q44 -44 117 -44h75v-256h-130q-86 0 -152 26q-22 -81 -60 -138q-127 -189 -350 -287q-230 -101 -687 -101v256zM600 860v150h150v-150h-150zM725 1110v150h150 v-150h-150zM850 860v150h150v-150h-150z" />
<glyph unicode="&#x691;" horiz-adv-x="1179" arabic-form="isolated" d="M-85 -244q309 0 465 68q152 65 233 176q73 103 71 284q0 145 -52 266h358q50 -150 50 -266q0 -265 -88 -396q-127 -189 -350 -287q-230 -101 -687 -101v256zM535 804v135h60v388h136v-280q75 84 157 84t108 -19q68 -50 68 -125q0 -92 -67 -144q-51 -39 -170 -39h-175 h-117zM771 939h33q50 0 90 13q38 14 38 35q0 37 -30 35q-21 -3 -47 -14q-49 -22 -84 -69z" />
<glyph unicode="&#x691;" horiz-adv-x="1274" arabic-form="final" d="M-85 -244q309 0 465 68q154 67 233 176q73 101 71 284q0 145 -52 266h358q11 -34 20 -66q34 -125 92 -184q44 -44 117 -44h75v-256h-130q-86 0 -152 26q-22 -81 -60 -138q-127 -189 -350 -287q-230 -101 -687 -101v256zM535 804v135h60v388h136v-280q75 84 157 84 t108 -19q68 -50 68 -125q0 -92 -67 -144q-51 -39 -170 -39h-175h-117zM771 939h33q50 0 90 13q38 14 38 35q0 37 -30 35q-21 -3 -47 -14q-49 -22 -84 -69z" />
<glyph unicode="&#x6a9;" horiz-adv-x="2097" arabic-form="isolated" d="M130 314q-1 138 63 230h358q-51 -94 -51 -184q0 -99 189 -157q85 -25 247 -25q180 0 348 35q103 21 129 82q16 36 16 72q0 28 -78 128l-297 380q-50 63 -50 142q0 35 10 68q37 129 135 161l948 310v-256l-571 -199q-68 -24 -92 -70q-6 -11 -6 -36q0 -27 31 -69l231 -311 q156 -210 156 -300q0 -190 -101 -240q-189 -93 -341 -118q-234 -36 -493 -36q-305 0 -451 28q-329 63 -330 365z" />
<glyph unicode="&#x6a9;" horiz-adv-x="2097" arabic-form="final" d="M130 314q-1 138 63 230h358q-51 -94 -51 -184q0 -99 189 -157q81 -25 247 -25q180 0 348 35q103 21 129 82q16 36 16 72q0 28 -78 128l-297 380q-50 63 -50 142q0 35 10 68q37 129 135 161l948 310v-256l-571 -199q-68 -24 -92 -70q-6 -11 -6 -36q0 -28 31 -69l419 -560 q36 -48 84 -84q35 -26 90 -26h65v-256h-143q-154 0 -229 75q-189 -93 -341 -118q-220 -36 -493 -36q-305 0 -451 28q-329 63 -330 365z" />
<glyph unicode="&#x6a9;" horiz-adv-x="1191" arabic-form="initial" d="M-20 0v256h396q114 0 131 39q16 36 16 72q0 28 -78 128l-297 380q-50 63 -50 142q0 35 10 68q34 128 135 161l948 310v-256l-571 -199q-68 -24 -92 -70q-6 -11 -6 -36q0 -27 31 -69l231 -311q156 -210 156 -300q0 -168 -101 -240q-106 -75 -341 -75h-518z" />
<glyph unicode="&#x6a9;" horiz-adv-x="1191" arabic-form="medial" d="M-20 0v256h396q114 0 131 39q16 36 16 72q0 28 -78 128l-297 380q-50 63 -50 142q0 35 10 68q34 128 135 161l948 310v-256l-571 -199q-68 -24 -92 -70q-6 -11 -6 -36q0 -28 31 -69l419 -560q36 -48 84 -84q35 -26 90 -26h65v-256h-143q-154 0 -229 75q-106 -75 -341 -75 h-518z" />
<glyph unicode="&#x6af;" horiz-adv-x="2097" arabic-form="isolated" d="M130 314q-1 138 63 230h358q-51 -94 -51 -184q0 -99 189 -157q85 -25 247 -25q180 0 348 35q103 21 129 82q16 36 16 72q0 28 -78 128l-297 380q-50 63 -50 142q0 35 10 68q37 129 135 161l948 310v-256l-571 -199q-68 -24 -92 -70q-6 -11 -6 -36q0 -27 31 -69l231 -311 q156 -210 156 -300q0 -190 -101 -240q-189 -93 -341 -118q-234 -36 -493 -36q-305 0 -451 28q-329 63 -330 365zM1035 1340v178l1062 345v-178z" />
<glyph unicode="&#x6af;" horiz-adv-x="2097" arabic-form="final" d="M130 314q-1 138 63 230h358q-51 -94 -51 -184q0 -99 189 -157q81 -25 247 -25q180 0 348 35q103 21 129 82q16 36 16 72q0 28 -78 128l-297 380q-50 63 -50 142q0 35 10 68q37 129 135 161l948 310v-256l-571 -199q-68 -24 -92 -70q-6 -11 -6 -36q0 -28 31 -69l419 -560 q36 -48 84 -84q35 -26 90 -26h65v-256h-143q-154 0 -229 75q-189 -93 -341 -118q-220 -36 -493 -36q-305 0 -451 28q-329 63 -330 365zM1035 1340v178l1062 345v-178z" />
<glyph unicode="&#x6af;" horiz-adv-x="1191" arabic-form="initial" d="M-20 0v256h396q114 0 131 39q16 36 16 72q0 28 -78 128l-297 380q-50 63 -50 142q0 35 10 68q34 128 135 161l948 310v-256l-571 -199q-68 -24 -92 -70q-6 -11 -6 -36q0 -27 31 -69l231 -311q156 -210 156 -300q0 -168 -101 -240q-106 -75 -341 -75h-518zM129 1340v178 l1062 345v-178z" />
<glyph unicode="&#x6af;" horiz-adv-x="1191" arabic-form="medial" d="M-20 0v256h396q114 0 131 39q16 36 16 72q0 28 -78 128l-297 380q-50 63 -50 142q0 35 10 68q34 128 135 161l948 310v-256l-571 -199q-68 -24 -92 -70q-6 -11 -6 -36q0 -28 31 -69l419 -560q36 -48 84 -84q35 -26 90 -26h65v-256h-143q-154 0 -229 75q-106 -75 -341 -75 h-518zM129 1340v178l1062 345v-178z" />
<glyph unicode="&#x6b3;" horiz-adv-x="2097" arabic-form="isolated" d="M130 314q-1 138 63 230h358q-51 -94 -51 -184q0 -99 189 -157q85 -25 247 -25q180 0 348 35q103 21 129 82q16 36 16 72q0 28 -78 128l-297 380q-50 63 -50 142q0 35 10 68q37 129 135 161l948 310v-256l-571 -199q-68 -24 -92 -70q-6 -11 -6 -36q0 -27 31 -69l231 -311 q156 -210 156 -300q0 -190 -101 -240q-189 -93 -341 -118q-234 -36 -493 -36q-305 0 -451 28q-329 63 -330 365zM850 -200h150v-150h-150v150zM850 -450h150v-150h-150v150zM1035 1340v178l1062 345v-178z" />
<glyph unicode="&#x6b3;" horiz-adv-x="2097" arabic-form="final" d="M130 314q-1 138 63 230h358q-51 -94 -51 -184q0 -99 189 -157q81 -25 247 -25q180 0 348 35q103 21 129 82q16 36 16 72q0 28 -78 128l-297 380q-50 63 -50 142q0 35 10 68q37 129 135 161l948 310v-256l-571 -199q-68 -24 -92 -70q-6 -11 -6 -36q0 -28 31 -69l419 -560 q36 -48 84 -84q35 -26 90 -26h65v-256h-143q-154 0 -229 75q-189 -93 -341 -118q-220 -36 -493 -36q-305 0 -451 28q-329 63 -330 365zM850 -200h150v-150h-150v150zM850 -450h150v-150h-150v150zM1035 1340v178l1062 345v-178z" />
<glyph unicode="&#x6b3;" horiz-adv-x="1191" arabic-form="initial" d="M-20 0v256h396q114 0 131 39q16 36 16 72q0 28 -78 128l-297 380q-50 63 -50 142q0 35 10 68q34 128 135 161l948 310v-256l-571 -199q-68 -24 -92 -70q-6 -11 -6 -36q0 -27 31 -69l231 -311q156 -210 156 -300q0 -168 -101 -240q-106 -75 -341 -75h-518zM129 1340v178 l1062 345v-178zM450 -150h150v-150h-150v150zM450 -400h150v-150h-150v150z" />
<glyph unicode="&#x6b3;" horiz-adv-x="1191" arabic-form="medial" d="M-20 0v256h396q114 0 131 39q16 36 16 72q0 28 -78 128l-297 380q-50 63 -50 142q0 35 10 68q34 128 135 161l948 310v-256l-571 -199q-68 -24 -92 -70q-6 -11 -6 -36q0 -28 31 -69l419 -560q36 -48 84 -84q35 -26 90 -26h65v-256h-143q-154 0 -229 75q-106 -75 -341 -75 h-518zM129 1340v178l1062 345v-178zM450 -150h150v-150h-150v150zM450 -400h150v-150h-150v150z" />
<glyph unicode="&#x6b1;" horiz-adv-x="2097" arabic-form="isolated" d="M130 314q-1 138 63 230h358q-51 -94 -51 -184q0 -99 189 -157q85 -25 247 -25q180 0 348 35q103 21 129 82q16 36 16 72q0 28 -78 128l-297 380q-50 63 -50 142q0 35 10 68q37 129 135 161l948 310v-256l-571 -199q-68 -24 -92 -70q-6 -11 -6 -36q0 -27 31 -69l231 -311 q156 -210 156 -300q0 -190 -101 -240q-189 -93 -341 -118q-234 -36 -493 -36q-305 0 -451 28q-329 63 -330 365zM1025 1700v150h150v-150h-150zM1035 1340v178l1062 345v-178zM1275 1700v150h150v-150h-150z" />
<glyph unicode="&#x6b1;" horiz-adv-x="2097" arabic-form="final" d="M130 314q-1 138 63 230h358q-51 -94 -51 -184q0 -99 189 -157q81 -25 247 -25q180 0 348 35q103 21 129 82q16 36 16 72q0 28 -78 128l-297 380q-50 63 -50 142q0 35 10 68q37 129 135 161l948 310v-256l-571 -199q-68 -24 -92 -70q-6 -11 -6 -36q0 -28 31 -69l419 -560 q36 -48 84 -84q35 -26 90 -26h65v-256h-143q-154 0 -229 75q-189 -93 -341 -118q-220 -36 -493 -36q-305 0 -451 28q-329 63 -330 365zM1025 1700v150h150v-150h-150zM1035 1340v178l1062 345v-178zM1275 1700v150h150v-150h-150z" />
<glyph unicode="&#x6b1;" horiz-adv-x="1191" arabic-form="initial" d="M-20 0v256h396q114 0 131 39q16 36 16 72q0 28 -78 128l-297 380q-50 63 -50 142q0 35 10 68q34 128 135 161l948 310v-256l-571 -199q-68 -24 -92 -70q-6 -11 -6 -36q0 -27 31 -69l231 -311q156 -210 156 -300q0 -168 -101 -240q-106 -75 -341 -75h-518zM75 1700v150 h150v-150h-150zM129 1340v178l1062 345v-178zM325 1700v150h150v-150h-150z" />
<glyph unicode="&#x6b1;" horiz-adv-x="1191" arabic-form="medial" d="M-20 0v256h396q114 0 131 39q16 36 16 72q0 28 -78 128l-297 380q-50 63 -50 142q0 35 10 68q34 128 135 161l948 310v-256l-571 -199q-68 -24 -92 -70q-6 -11 -6 -36q0 -28 31 -69l419 -560q36 -48 84 -84q35 -26 90 -26h65v-256h-143q-154 0 -229 75q-106 -75 -341 -75 h-518zM75 1700v150h150v-150h-150zM129 1340v178l1062 345v-178zM325 1700v150h150v-150h-150z" />
<glyph unicode="&#x6ba;" horiz-adv-x="1748" arabic-form="isolated" d="M126 168q0 140 40 316h358q-42 -160 -42 -293q0 -178 201 -252q55 -20 133 -20q56 0 117 16q213 54 269 215q33 95 33 214q0 164 -101 386h358q103 -164 104 -438q1 -173 -100 -351q-125 -220 -359 -265q-177 -34 -317 -34q-192 0 -345 44q-349 99 -349 462z" />
<glyph unicode="&#x6ba;" horiz-adv-x="1843" arabic-form="final" d="M126 6q0 140 40 316h358q-42 -160 -42 -293q0 -178 201 -252q55 -21 133 -21q56 0 117 17q214 56 269 215q33 95 33 214q0 164 -101 386h358q29 -45 37 -63q40 -97 50 -108q131 -160 236 -160h48v-257h-63q-168 1 -211 60q0 -98 -93 -261q-127 -220 -359 -265 q-177 -34 -317 -34q-192 0 -345 44q-349 99 -349 462z" />
<glyph unicode="&#x6bb;" horiz-adv-x="1748" arabic-form="isolated" d="M126 168q0 140 40 316h358q-42 -160 -42 -293q0 -178 201 -252q55 -20 133 -20q56 0 117 16q213 54 269 215q33 95 33 214q0 164 -101 386h358q103 -164 104 -438q1 -173 -100 -351q-125 -220 -359 -265q-177 -34 -317 -34q-192 0 -345 44q-349 99 -349 462zM572 779v135 h60v388h136v-280q75 84 157 84t108 -19q68 -50 68 -125q0 -92 -67 -144q-51 -39 -170 -39h-175h-117zM808 914h33q50 0 90 13q38 14 38 35q0 37 -30 35q-21 -3 -47 -14q-49 -22 -84 -69z" />
<glyph unicode="&#x6bb;" horiz-adv-x="1843" arabic-form="final" d="M126 6q0 140 40 316h358q-42 -160 -42 -293q0 -178 201 -252q55 -21 133 -21q56 0 117 17q214 56 269 215q33 95 33 214q0 164 -101 386h358q29 -45 37 -63q40 -97 50 -108q131 -160 236 -160h48v-257h-63q-168 1 -211 60q0 -98 -93 -261q-127 -220 -359 -265 q-177 -34 -317 -34q-192 0 -345 44q-349 99 -349 462zM572 529v135h60v388h136v-280q75 84 157 84t108 -19q68 -50 68 -125q0 -92 -67 -144q-51 -39 -170 -39h-175h-117zM808 664h33q50 0 90 13q38 14 38 35q0 37 -30 35q-21 -3 -47 -14q-49 -22 -84 -69z" />
<glyph unicode="&#x6bb;" horiz-adv-x="769" arabic-form="initial" d="M-20 0v256h98q68 0 112 44q49 49 49 155v145h358v-229q0 -182 -68 -279q-64 -92 -192 -92h-357zM153 854v135h60v388h136v-280q75 84 157 84t108 -19q68 -50 68 -125q0 -92 -67 -144q-51 -39 -170 -39h-175h-117zM389 989h33q50 0 90 13q38 14 38 35q0 37 -30 35 q-21 -3 -47 -14q-49 -22 -84 -69z" />
<glyph unicode="&#x6bb;" horiz-adv-x="836" arabic-form="medial" d="M-20 0v256h98q68 0 112 44q49 49 49 155v145h358v-145q0 -106 49 -155q44 -44 112 -44h98v-256h-251q-110 0 -187 109q-77 -109 -187 -109h-251zM153 854v135h60v388h136v-280q75 84 157 84t108 -19q68 -50 68 -125q0 -92 -67 -144q-51 -39 -170 -39h-175h-117zM389 989 h33q50 0 90 13q38 14 38 35q0 37 -30 35q-21 -3 -47 -14q-49 -22 -84 -69z" />
<glyph unicode="&#x6be;" horiz-adv-x="1920" arabic-form="isolated" d="M144 260q0 75 16 128h358q-14 -34 -14 -61q0 -83 51 -109q37 -19 60 -19q72 0 150 35q-53 52 -87 121t-34 137q0 114 120 210q48 38 126 56q-87 23 -145 23v256q437 -57 718 -267q334 -249 334 -477q0 -161 -94 -247q-124 -113 -352 -113t-374 103q-254 -83 -305 -90 t-130 -7t-205 38q-193 58 -193 283zM988 421.5q0 -41.5 61 -91.5q99 60 99 102q0 105 -70 105q-49 0 -69.5 -37t-20.5 -78.5zM1273 192q29 -5 50 -5q123 0 142 67q7 25 7 60t-20 71t-21 36q-44 -125 -158 -229z" />
<glyph unicode="&#x6be;" horiz-adv-x="1802" arabic-form="final" d="M144 260q0 75 16 128h358q-14 -34 -14 -61q0 -83 51 -109q37 -19 52 -19h22v57q0 196 151 348t362 152q467 0 467 -256q0 -109 -127 -244h340v-256h-376q163 -128 163 -241q0 -259 -467 -259q-215 0 -349.5 139.5t-157.5 300.5h-105q-62 0 -193 37q-193 55 -193 283z M987 -10q0 -113 50.5 -174.5t135.5 -61.5t85 50t-84.5 119.5t-149.5 76.5zM987 240q100 26 185.5 90.5t85.5 122.5q0 49 -87 49t-135.5 -64t-48.5 -182v-16z" />
<glyph unicode="&#x6be;" horiz-adv-x="1420" arabic-form="initial" d="M-20 0v256h107q79 0 157 11q-54 62 -64 84q-36 72 -36 141q0 112 120 210q46 38 126 56q-87 18 -145 23v256q437 -57 718 -267q249 -186 315 -368q19 -52 19 -109q0 -160 -94 -247q-122 -113 -355 -113q-224 0 -371 103q-105 -36 -360 -36h-137zM488 432q1 -35 16 -54 q21 -27 45 -48q99 60 99 105q0 38 -15 69q-16 33 -55 33q-46 0 -74 -45q-18 -30 -16 -60zM773 192q29 -5 50 -5q122 0 142 67q7 30 7 63q0 36 -36 97q-4 7 -5 7q-22 -62 -56 -112q-42 -61 -102 -117z" />
<glyph unicode="&#x6be;" horiz-adv-x="1352" arabic-form="medial" d="M-20 0v256h199q5 196 161 358q136 142 352 142q260 1 380 -84q87 -64 87 -168q0 -120 -163 -248h376v-256h-376q163 -128 163 -248q0 -104 -87 -168q-120 -85 -380 -84q-216 0 -352 142q-156 162 -161 358h-199zM537 0q0 -118 54 -189q45 -57 117 -57q100 0 100 49 q0 52 -95 129q-84 68 -157 68h-19zM537 256h19q73 0 157 68q95 77 95 129q0 49 -100 49q-72 0 -117 -57q-54 -71 -54 -189z" />
<glyph unicode="&#x6ad;" horiz-adv-x="1688" arabic-form="isolated" d="M144 260q0 75 16 128h358q-14 -34 -14 -61q0 -46 162 -105q58 -21 183 -21q115 0 216 33q121 39 172 107q73 97 73 270v945h358v-945q0 -327 -110 -450q-150 -168 -370 -198q-140 -19 -334 -18q-315 2 -417 32q-293 88 -293 283zM625 1350v150h150v-150h-150zM651 617 v121q68 -9 113 -9q85 0 117 14q60 26 60 67q0 23 -78 42q-64 16 -92 57q-32 47 -31 93q2 80 77 119q82 43 256 47v-115q-59 1 -112 -6q-80 -11 -80 -42q0 -43 38 -65q35 -20 56 -26q102 -32 102 -117q-1 -110 -88 -152q-82 -39 -216 -39q-66 0 -122 11zM750 1600v150h150 v-150h-150zM875 1350v150h150v-150h-150z" />
<glyph unicode="&#x6ad;" horiz-adv-x="1726" arabic-form="final" d="M144 260q0 75 16 128h358q-14 -34 -14 -61q0 -46 162 -105q58 -21 183 -21q115 0 216 33q121 39 172 107q73 97 73 270v945h358v-1101q0 -106 49 -155q44 -44 112 -44h98v-256h-357q-75 0 -136 53q-110 -71 -246 -90q-140 -19 -334 -18q-315 2 -417 32q-293 88 -293 283z M625 1350v150h150v-150h-150zM651 617v121q68 -9 113 -9q85 0 117 14q60 26 60 67q0 23 -78 42q-64 16 -92 57q-32 47 -31 93q2 80 77 119q82 43 256 47v-115q-59 1 -112 -6q-80 -11 -80 -42q0 -43 38 -65q35 -20 56 -26q102 -32 102 -117q-1 -110 -88 -152 q-82 -39 -216 -39q-66 0 -122 11zM750 1600v150h150v-150h-150zM875 1350v150h150v-150h-150z" />
<glyph unicode="&#x6ad;" horiz-adv-x="975" arabic-form="initial" d="M-20 0v256h396q114 0 131 39q16 36 16 72q0 28 -78 128l-297 380q-50 63 -50 142q0 35 10 68q34 128 135 161l948 310v-256l-571 -199q-68 -24 -92 -70q-6 -11 -6 -36q0 -27 31 -69l231 -311q156 -210 156 -300q0 -168 -101 -240q-106 -75 -341 -75h-518zM75 1500v150 h150v-150h-150zM200 1750v150h150v-150h-150zM325 1500v150h150v-150h-150z" />
<glyph unicode="&#x6ad;" horiz-adv-x="1131" arabic-form="medial" d="M-20 0v256h396q114 0 131 39q16 36 16 72q0 28 -78 128l-297 380q-50 63 -50 142q0 35 10 68q34 128 135 161l948 310v-256l-571 -199q-68 -24 -92 -70q-6 -11 -6 -36q0 -28 31 -69l419 -560q36 -48 84 -84q35 -26 90 -26h65v-256h-143q-154 0 -229 75q-106 -75 -341 -75 h-518zM75 1500v150h150v-150h-150zM200 1750v150h150v-150h-150zM325 1500v150h150v-150h-150z" />
<glyph unicode="&#x6c6;" horiz-adv-x="1273" arabic-form="isolated" d="M-85 -244q239 -8 411 19q178 29 261 82q101 64 127 143q-32 0 -131 2q-223 5 -316 86q-98 84 -98 216q0 52 8 96q28 161 173 217q109 42 262 43q220 0 325 -57t156 -209q27 -82 27 -238q0 -204 -89 -348q-93 -151 -313 -225q-246 -83 -803 -83v256zM316 1138h179 l130 -195l130 195h179l-195 -326h-228zM527 340q0 -45 35 -64q36 -19 70 -19h122q0 39 -5 68q-6 41 -53 80q-29 24 -68 23q-42 -1 -71 -30q-30 -30 -30 -58z" />
<glyph unicode="&#x6c6;" horiz-adv-x="1284" arabic-form="final" d="M-85 -244q239 -8 411 19q174 28 261 82q101 64 127 143q-32 0 -131 2q-223 5 -316 86q-98 84 -98 216q0 52 8 96q28 161 173 217q109 42 262 43q244 1 339 -57q89 -55 142 -209q20 -57 27 -138h184v-256h-201q-9 -91 -72 -192q-95 -151 -313 -225q-246 -83 -803 -83v256z M316 1138h179l130 -195l130 195h179l-195 -326h-228zM527 340q0 -45 35 -64q36 -19 70 -19h122q0 39 -5 68q-6 41 -53 80q-29 24 -68 23q-42 -1 -71 -30q-30 -30 -30 -58z" />
<glyph unicode="&#x649;" horiz-adv-x="769" arabic-form="initial" d="M-20 0v256h98q68 0 112 44q49 49 49 155v145h358v-229q0 -182 -68 -279q-64 -92 -192 -92h-357z" />
<glyph unicode="&#x649;" horiz-adv-x="836" arabic-form="medial" d="M-20 0v256h98q68 0 112 44q49 49 49 155v145h358v-145q0 -106 49 -155q44 -44 112 -44h98v-256h-251q-110 0 -187 109q-77 -109 -187 -109h-251z" />
<glyph unicode="&#x6cc;" horiz-adv-x="1877" arabic-form="isolated" d="M130 175q-1 138 63 230h358q-70 -101 -65 -230q3 -78 130 -121q51 -17 176 -17q147 0 280 35q247 66 249 160q1 96 -123 138q-179 61 -180 61q-73 32 -125 78q-64 57 -65 172q-2 168 190 224q140 41 282 41q173 0 278 -46q163 -71 190 -253h-318q-22 69 -137 68 q-91 -1 -114 -30q-26 -33 -25 -43q3 -36 125 -66q216 -53 305 -165q76 -96 77 -195q1 -75 -41 -151q-89 -157 -492 -243q-197 -41 -336 -41q-305 -1 -389 29q-292 106 -293 365z" />
<glyph unicode="&#x6cc;" horiz-adv-x="2072" arabic-form="final" d="M130 124q-1 139 63 230h358q-70 -101 -65 -230q2 -68 130 -110q51 -17 212 -17q186 0 316 35q146 40 146 74q-1 26 -27 43q-54 37 -65 48q-31 37 -31 121q0 98 48 145q74 73 124 96q76 35 225 35q257 0 360 -184q86 -154 139 -154h29v-256h-61q-171 0 -281 180 q-90 147 -158 147q-18 0 -25 -3q-45 -17 -45 -55q0 -44 57 -68q66 -27 66 -147q0 -179 -425 -272q-190 -41 -372 -41q-341 -1 -425 29q-292 105 -293 354z" />
<glyph unicode="&#x6cc;" horiz-adv-x="769" arabic-form="initial" d="M-20 0v256h98q68 0 112 44q49 49 49 155v145h358v-229q0 -182 -68 -279q-64 -92 -192 -92h-357zM218 -190h150v-150h-150v150zM468 -190h150v-150h-150v150z" />
<glyph unicode="&#x6cc;" horiz-adv-x="836" arabic-form="medial" d="M-20 0v256h98q68 0 112 44q49 49 49 155v145h358v-145q0 -106 49 -155q44 -44 112 -44h98v-256h-251q-110 0 -187 109q-77 -109 -187 -109h-251zM218 -190h150v-150h-150v150zM468 -190h150v-150h-150v150z" />
<glyph unicode="&#x621;" horiz-adv-x="1047" arabic-form="isolated" d="M149 685q35 164 147 243q116 81 220 81q152 0 299 -60v-249q-64 44 -135 58q-81 17 -135 -25q-58 -46 -57 -108q0 -92 162 -127q118 -26 245 43v-256q-123 -75 -342 -154q-173 -63 -403 -91v256q53 4 105 20q74 22 96 36q-120 28 -157 93q-69 125 -45 240z" />
<glyph unicode="&#x622;" horiz-adv-x="702" arabic-form="isolated" d="M-40 1647v170l166 123q106 -89 153 -99q78 -17 138 -18q71 0 130 21q117 41 195 112v-170q-61 -52 -180 -88q-84 -26 -151 -27q-99 0 -152 22q-58 24 -128 77zM172 0v1556h358v-1556h-358z" />
<glyph unicode="&#x622;" horiz-adv-x="769" arabic-form="final" d="M-40 1647v170l166 123q106 -89 153 -99q78 -17 138 -18q71 0 130 21q117 41 195 112v-170q-61 -52 -180 -88q-84 -26 -151 -27q-99 0 -152 22q-58 24 -128 77zM172 371v1185h358v-1101q0 -106 49 -155q44 -44 112 -44h98v-256h-357q-128 0 -192 92q-68 97 -68 279z" />
<glyph unicode="&#x623;" horiz-adv-x="702" arabic-form="isolated" d="M154 1845q3 106 56 149q48 40 179 40q66 0 128 -22v-125q-70 20 -128 20q-42 0 -61 -9q-29 -14 -29 -62q0 -52 63 -68q24 -6 54 -1l109 20v-129l-363 -77v127l78 18q-54 12 -70 45q-16 34 -16 74zM172 0v1556h358v-1556h-358z" />
<glyph unicode="&#x623;" horiz-adv-x="769" arabic-form="final" d="M154 1845q3 106 56 149q48 40 179 40q66 0 128 -22v-125q-70 20 -128 20q-42 0 -61 -9q-29 -14 -29 -62q0 -52 63 -68q24 -6 54 -1l109 20v-129l-363 -77v127l78 18q-54 12 -70 45q-16 34 -16 74zM172 371v1185h358v-1101q0 -106 49 -155q44 -44 112 -44h98v-256h-357 q-128 0 -192 92q-68 97 -68 279z" />
<glyph unicode="&#x624;" horiz-adv-x="1273" arabic-form="isolated" d="M-85 -244q239 -8 411 19q178 29 261 82q101 64 127 143q-32 0 -131 2q-223 5 -316 86q-98 84 -98 216q0 52 8 96q28 161 173 217q109 42 262 43q220 0 325 -57t156 -209q27 -82 27 -238q0 -204 -89 -348q-93 -151 -313 -225q-246 -83 -803 -83v256zM428 1045 q3 106 56 149q48 40 179 40q66 0 128 -22v-125q-70 20 -128 20q-42 0 -61 -9q-29 -14 -29 -62q0 -52 63 -68q24 -6 54 -1l109 20v-129l-363 -77v127l78 18q-54 12 -70 45q-16 34 -16 74zM527 340q0 -45 35 -64q36 -19 70 -19h122q0 39 -5 68q-6 41 -53 80q-29 24 -68 23 q-42 -1 -71 -30q-30 -30 -30 -58z" />
<glyph unicode="&#x624;" horiz-adv-x="1284" arabic-form="final" d="M-85 -244q239 -8 411 19q174 28 261 82q101 64 127 143q-32 0 -131 2q-223 5 -316 86q-98 84 -98 216q0 52 8 96q28 161 173 217q109 42 262 43q244 1 339 -57q89 -55 142 -209q20 -57 27 -138h184v-256h-201q-9 -91 -72 -192q-95 -151 -313 -225q-246 -83 -803 -83v256z M428 1045q3 106 56 149q48 40 179 40q66 0 128 -22v-125q-70 20 -128 20q-42 0 -61 -9q-29 -14 -29 -62q0 -52 63 -68q24 -6 54 -1l109 20v-129l-363 -77v127l78 18q-54 12 -70 45q-16 34 -16 74zM527 340q0 -45 35 -64q36 -19 70 -19h122q0 39 -5 68q-6 41 -53 80 q-29 24 -68 23q-42 -1 -71 -30q-30 -30 -30 -58z" />
<glyph unicode="&#x625;" horiz-adv-x="702" arabic-form="isolated" d="M156 -236q3 106 56 149q48 40 179 40q66 0 128 -22v-125q-70 20 -128 20q-42 0 -61 -9q-29 -14 -29 -62q0 -52 63 -68q24 -6 54 -1l109 20v-129l-363 -77v127l78 18q-54 12 -70 45q-16 34 -16 74zM172 0v1556h358v-1556h-358z" />
<glyph unicode="&#x625;" horiz-adv-x="769" arabic-form="final" d="M156 -236q3 106 56 149q48 40 179 40q66 0 128 -22v-125q-70 20 -128 20q-42 0 -61 -9q-29 -14 -29 -62q0 -52 63 -68q24 -6 54 -1l109 20v-129l-363 -77v127l78 18q-54 12 -70 45q-16 34 -16 74zM172 371v1185h358v-1101q0 -106 49 -155q44 -44 112 -44h98v-256h-357 q-128 0 -192 92q-68 97 -68 279z" />
<glyph unicode="&#x626;" horiz-adv-x="1877" arabic-form="isolated" d="M130 175q-1 138 63 230h358q-70 -101 -65 -230q3 -78 130 -121q51 -17 176 -17q147 0 280 35q247 66 249 160q1 96 -123 138q-179 61 -180 61q-73 32 -125 78q-64 57 -65 172q-2 168 190 224q140 41 282 41q173 0 278 -46q163 -71 190 -253h-318q-22 69 -137 68 q-91 -1 -114 -30q-26 -33 -25 -43q3 -36 125 -66q216 -53 305 -165q76 -96 77 -195q1 -75 -41 -151q-89 -157 -492 -243q-197 -41 -336 -41q-305 -1 -389 29q-292 106 -293 365zM353 1045q3 106 56 149q48 40 179 40q66 0 128 -22v-125q-70 20 -128 20q-42 0 -61 -9 q-29 -14 -29 -62q0 -52 63 -68q24 -6 54 -1l109 20v-129l-363 -77v127l78 18q-54 12 -70 45q-16 34 -16 74z" />
<glyph unicode="&#x626;" horiz-adv-x="1877" arabic-form="final" d="M130 124q-1 139 63 230h358q-70 -101 -65 -230q2 -68 130 -110q51 -17 212 -17q186 0 316 35q146 40 146 74q-1 26 -27 43q-54 37 -65 48q-31 37 -31 121q0 98 48 145q74 73 124 96q76 35 225 35q257 0 360 -184q86 -154 139 -154h29v-256h-61q-171 0 -281 180 q-90 147 -158 147q-18 0 -25 -3q-45 -17 -45 -55q0 -44 57 -68q66 -27 66 -147q0 -179 -425 -272q-190 -41 -372 -41q-341 -1 -425 29q-292 105 -293 354zM553 795q3 106 56 149q48 40 179 40q66 0 128 -22v-125q-70 20 -128 20q-42 0 -61 -9q-29 -14 -29 -62q0 -52 63 -68 q24 -6 54 -1l109 20v-129l-363 -77v127l78 18q-54 12 -70 45q-16 34 -16 74z" />
<glyph unicode="&#x626;" horiz-adv-x="769" arabic-form="initial" d="M-20 0v256h98q68 0 112 44q49 49 49 155v145h358v-229q0 -182 -68 -279q-64 -92 -192 -92h-357zM221 1095q3 106 56 149q48 40 179 40q66 0 128 -22v-125q-70 20 -128 20q-42 0 -61 -9q-29 -14 -29 -62q0 -52 63 -68q24 -6 54 -1l109 20v-129l-363 -77v127l78 18 q-54 12 -70 45q-16 34 -16 74z" />
<glyph unicode="&#x626;" horiz-adv-x="836" arabic-form="medial" d="M-20 0v256h98q68 0 112 44q49 49 49 155v145h358v-145q0 -106 49 -155q44 -44 112 -44h98v-256h-251q-110 0 -187 109q-77 -109 -187 -109h-251zM221 1095q3 106 56 149q48 40 179 40q66 0 128 -22v-125q-70 20 -128 20q-42 0 -61 -9q-29 -14 -29 -62q0 -52 63 -68 q24 -6 54 -1l109 20v-129l-363 -77v127l78 18q-54 12 -70 45q-16 34 -16 74z" />
<glyph unicode="&#x627;" horiz-adv-x="702" arabic-form="isolated" d="M172 0v1556h358v-1556h-358z" />
<glyph unicode="&#x627;" horiz-adv-x="769" arabic-form="final" d="M172 371v1185h358v-1101q0 -106 49 -155q44 -44 112 -44h98v-256h-357q-128 0 -192 92q-68 97 -68 279z" />
<glyph unicode="&#x628;" horiz-adv-x="2058" arabic-form="isolated" d="M130 383q-1 138 63 230h358q-51 -94 -51 -184q0 -91 189 -157q72 -25 156 -25q205 0 361 47q242 71 292 159q64 113 30 216h358q50 -256 -61 -396q-114 -142 -339 -204q-282 -77 -666 -79q-234 -1 -360 28q-329 77 -330 365zM900 -155h150v-150h-150v150z" />
<glyph unicode="&#x628;" horiz-adv-x="2168" arabic-form="final" d="M130 383q-1 138 63 230h358q-51 -94 -51 -184q0 -91 189 -157q72 -25 156 -25q205 0 361 47q243 73 292 159q64 113 30 216h358q16 -75 16 -120q0 -147 54 -224q50 -69 157 -69h75v-256h-130q-270 0 -372 162q-43 -52 -200 -93q-291 -77 -666 -79q-234 -1 -360 28 q-329 77 -330 365zM900 -155h150v-150h-150v150z" />
<glyph unicode="&#x628;" horiz-adv-x="769" arabic-form="initial" d="M-20 0v256h98q68 0 112 44q49 49 49 155v145h358v-229q0 -182 -68 -279q-64 -92 -192 -92h-357zM343 -205h150v-150h-150v150z" />
<glyph unicode="&#x628;" horiz-adv-x="836" arabic-form="medial" d="M-20 0v256h98q68 0 112 44q49 49 49 155v145h358v-145q0 -106 49 -155q44 -44 112 -44h98v-256h-251q-110 0 -187 109q-77 -109 -187 -109h-251zM343 -205h150v-150h-150v150z" />
<glyph unicode="&#x629;" horiz-adv-x="1209" arabic-form="isolated" d="M98 290q-1 181 37 259q91 185 399 185q219 0 431 -160q143 -108 141 -272q-2 -170 -148 -275q-120 -86 -355 -87q-172 0 -312 41q-191 57 -193 309zM300 900v150h150v-150h-150zM456 315q1 -68 59 -101q32 -18 87 -18q40 0 81 26q65 42 65 87q0 42 -47 91q-75 80 -131 80 q-85 0 -100 -43q-15 -44 -14 -122zM550 900v150h150v-150h-150z" />
<glyph unicode="&#x629;" horiz-adv-x="1242" arabic-form="final" d="M133 285q0 190 216 328q106 68 308 83q-5 33 -5 54h358q2 -200 37 -342q20 -82 61 -108q68 -44 79 -44h75v-256h-224q-92 0 -163 34q-66 31 -83 66q-108 -65 -344 -64q-56 0 -114 15q-201 48 -201 234zM400 900v150h150v-150h-150zM491 327q0 -48 68 -48q97 0 144 38 q-14 40 -22 91q-4 27 -9 50q-95 -10 -136 -42q-45 -35 -45 -89zM650 900v150h150v-150h-150z" />
<glyph unicode="&#x62a;" horiz-adv-x="2058" arabic-form="isolated" d="M130 383q-1 138 63 230h358q-51 -94 -51 -184q0 -91 189 -157q72 -25 156 -25q205 0 361 47q242 71 292 159q64 113 30 216h358q50 -256 -61 -396q-114 -142 -339 -204q-282 -77 -666 -79q-234 -1 -360 28q-329 77 -330 365zM775 700v150h150v-150h-150zM1025 700v150 h150v-150h-150z" />
<glyph unicode="&#x62a;" horiz-adv-x="2168" arabic-form="final" d="M130 383q-1 138 63 230h358q-51 -94 -51 -184q0 -91 189 -157q72 -25 156 -25q205 0 361 47q243 73 292 159q64 113 30 216h358q16 -75 16 -120q0 -147 54 -224q50 -69 157 -69h75v-256h-130q-270 0 -372 162q-43 -52 -200 -93q-291 -77 -666 -79q-234 -1 -360 28 q-329 77 -330 365zM775 700v150h150v-150h-150zM1025 700v150h150v-150h-150z" />
<glyph unicode="&#x62a;" horiz-adv-x="769" arabic-form="initial" d="M-20 0v256h98q68 0 112 44q49 49 49 155v145h358v-229q0 -182 -68 -279q-64 -92 -192 -92h-357zM218 850v150h150v-150h-150zM468 850v150h150v-150h-150z" />
<glyph unicode="&#x62a;" horiz-adv-x="836" arabic-form="medial" d="M-20 0v256h98q68 0 112 44q49 49 49 155v145h358v-145q0 -106 49 -155q44 -44 112 -44h98v-256h-251q-110 0 -187 109q-77 -109 -187 -109h-251zM218 850v150h150v-150h-150zM468 850v150h150v-150h-150z" />
<glyph unicode="&#x62b;" horiz-adv-x="2058" arabic-form="isolated" d="M130 383q-1 138 63 230h358q-51 -94 -51 -184q0 -91 189 -157q72 -25 156 -25q205 0 361 47q242 71 292 159q64 113 30 216h358q50 -256 -61 -396q-114 -142 -339 -204q-282 -77 -666 -79q-234 -1 -360 28q-329 77 -330 365zM775 700v150h150v-150h-150zM900 950v150h150 v-150h-150zM1025 700v150h150v-150h-150z" />
<glyph unicode="&#x62b;" horiz-adv-x="2168" arabic-form="final" d="M130 383q-1 138 63 230h358q-51 -94 -51 -184q0 -91 189 -157q72 -25 156 -25q205 0 361 47q243 73 292 159q64 113 30 216h358q16 -75 16 -120q0 -147 54 -224q50 -69 157 -69h75v-256h-130q-270 0 -372 162q-43 -52 -200 -93q-291 -77 -666 -79q-234 -1 -360 28 q-329 77 -330 365zM775 700v150h150v-150h-150zM900 950v150h150v-150h-150zM1025 700v150h150v-150h-150z" />
<glyph unicode="&#x62b;" horiz-adv-x="769" arabic-form="initial" d="M-20 0v256h98q68 0 112 44q49 49 49 155v145h358v-229q0 -182 -68 -279q-64 -92 -192 -92h-357zM218 850v150h150v-150h-150zM343 1100v150h150v-150h-150zM468 850v150h150v-150h-150z" />
<glyph unicode="&#x62b;" horiz-adv-x="836" arabic-form="medial" d="M-20 0v256h98q68 0 112 44q49 49 49 155v145h358v-145q0 -106 49 -155q44 -44 112 -44h98v-256h-251q-110 0 -187 109q-77 -109 -187 -109h-251zM218 850v150h150v-150h-150zM343 1100v150h150v-150h-150zM468 850v150h150v-150h-150z" />
<glyph unicode="&#x62c;" horiz-adv-x="1476" arabic-form="isolated" d="M157 551v256q271 63 471 63q352 0 642 -38v-256q-335 19 -530 -138q-203 -163 -203 -363q0 -121 103 -227q90 -92 327 -92q301 0 507 153v-275q-164 -134 -502 -134q-437 1 -637 199q-156 154 -156 376q0 179 140 350q102 125 300 203q-84 3 -232 -17q-135 -19 -230 -60z M925 35v150h150v-150h-150z" />
<glyph unicode="&#x62c;" horiz-adv-x="1476" arabic-form="final" d="M157 551v256q271 63 471 63q352 0 642 -38v-256q-14 1 -27 1q-16 1 -31 1q0 -60 73 -203q61 -119 145 -119h66v-256h-86q-158 0 -279 149q-71 88 -131 212q-50 107 -68 179q-109 -35 -192 -102q-203 -163 -203 -363q0 -121 103 -227q90 -92 327 -92q301 0 507 153v-275 q-164 -134 -502 -134q-437 1 -637 199q-156 154 -156 376q0 179 140 350q102 125 300 203q-84 3 -232 -17q-135 -19 -230 -60zM775 -65v150h150v-150h-150z" />
<glyph unicode="&#x62c;" horiz-adv-x="1476" arabic-form="initial" d="M-20 0v256h100q206 0 345 34q142 36 251 105q96 61 191 109q-75 25 -188 40q-94 12 -248 25q-71 6 -243 -4v256q72 7 147 8q242 0 433 -35q279 -50 519 -122v-256q-91 -32 -204 -98q-129 -76 -264 -168q-115 -79 -327 -116q-193 -34 -384 -34h-128zM625 -205h150v-150 h-150v150z" />
<glyph unicode="&#x62c;" horiz-adv-x="1476" arabic-form="medial" d="M-20 0v256h100q206 0 345 34q142 36 251 105q96 61 191 109q-75 25 -188 40q-94 12 -248 25q-71 6 -243 -4v256q72 7 147 8q242 0 433 -35q279 -50 519 -122v-256l-47 -18q22 -49 44 -74q59 -68 146 -68h66v-256h-86q-204 0 -311 117q-52 57 -99 152q-82 -59 -181 -119 q-136 -83 -327 -116q-194 -34 -384 -34h-128zM625 -205h150v-150h-150v150z" />
<glyph unicode="&#x62d;" horiz-adv-x="1476" arabic-form="isolated" d="M157 551v256q271 63 471 63q352 0 642 -38v-256q-335 19 -530 -138q-203 -163 -203 -363q0 -121 103 -227q90 -92 327 -92q301 0 507 153v-275q-164 -134 -502 -134q-437 1 -637 199q-156 154 -156 376q0 179 140 350q102 125 300 203q-84 3 -232 -17q-135 -19 -230 -60z " />
<glyph unicode="&#x62d;" horiz-adv-x="1476" arabic-form="final" d="M157 551v256q271 63 471 63q352 0 642 -38v-256q-14 1 -27 1q-16 1 -31 1q0 -60 73 -203q61 -119 145 -119h66v-256h-86q-158 0 -279 149q-71 88 -131 212q-50 107 -68 179q-109 -35 -192 -102q-203 -163 -203 -363q0 -121 103 -227q90 -92 327 -92q301 0 507 153v-275 q-164 -134 -502 -134q-437 1 -637 199q-156 154 -156 376q0 179 140 350q102 125 300 203q-84 3 -232 -17q-135 -19 -230 -60z" />
<glyph unicode="&#x62d;" horiz-adv-x="1476" arabic-form="initial" d="M-20 0v256h100q206 0 345 34q142 36 251 105q96 61 191 109q-75 25 -188 40q-94 12 -248 25q-71 6 -243 -4v256q72 7 147 8q242 0 433 -35q279 -50 519 -122v-256q-91 -32 -204 -98q-129 -76 -264 -168q-115 -79 -327 -116q-193 -34 -384 -34h-128z" />
<glyph unicode="&#x62d;" horiz-adv-x="1476" arabic-form="medial" d="M-20 0v256h100q206 0 345 34q142 36 251 105q96 61 191 109q-75 25 -188 40q-94 12 -248 25q-71 6 -243 -4v256q72 7 147 8q242 0 433 -35q279 -50 519 -122v-256l-47 -18q22 -49 44 -74q59 -68 146 -68h66v-256h-86q-204 0 -311 117q-52 57 -99 152q-82 -59 -181 -119 q-136 -83 -327 -116q-194 -34 -384 -34h-128z" />
<glyph unicode="&#x62e;" horiz-adv-x="1476" arabic-form="isolated" d="M157 551v256q271 63 471 63q352 0 642 -38v-256q-335 19 -530 -138q-203 -163 -203 -363q0 -121 103 -227q90 -92 327 -92q301 0 507 153v-275q-164 -134 -502 -134q-437 1 -637 199q-156 154 -156 376q0 179 140 350q102 125 300 203q-84 3 -232 -17q-135 -19 -230 -60z M625 1035v150h150v-150h-150z" />
<glyph unicode="&#x62e;" horiz-adv-x="1476" arabic-form="final" d="M157 551v256q271 63 471 63q352 0 642 -38v-256q-14 1 -27 1q-16 1 -31 1q0 -60 73 -203q61 -119 145 -119h66v-256h-86q-158 0 -279 149q-71 88 -131 212q-50 107 -68 179q-109 -35 -192 -102q-203 -163 -203 -363q0 -121 103 -227q90 -92 327 -92q301 0 507 153v-275 q-164 -134 -502 -134q-437 1 -637 199q-156 154 -156 376q0 179 140 350q102 125 300 203q-84 3 -232 -17q-135 -19 -230 -60zM625 1035v150h150v-150h-150z" />
<glyph unicode="&#x62e;" horiz-adv-x="1476" arabic-form="initial" d="M-20 0v256h100q206 0 345 34q142 36 251 105q96 61 191 109q-75 25 -188 40q-94 12 -248 25q-71 6 -243 -4v256q72 7 147 8q242 0 433 -35q279 -50 519 -122v-256q-91 -32 -204 -98q-129 -76 -264 -168q-115 -79 -327 -116q-193 -34 -384 -34h-128zM625 935v150h150v-150 h-150z" />
<glyph unicode="&#x62e;" horiz-adv-x="1476" arabic-form="medial" d="M-20 0v256h100q206 0 345 34q142 36 251 105q96 61 191 109q-75 25 -188 40q-94 12 -248 25q-71 6 -243 -4v256q72 7 147 8q242 0 433 -35q279 -50 519 -122v-256l-47 -18q22 -49 44 -74q59 -68 146 -68h66v-256h-86q-204 0 -311 117q-52 57 -99 152q-82 -59 -181 -119 q-136 -83 -327 -116q-194 -34 -384 -34h-128zM625 935v150h150v-150h-150z" />
<glyph unicode="&#x62f;" horiz-adv-x="1051" arabic-form="isolated" d="M125 0v255q157 -61 266 -33q175 46 200 127q27 87 -46 226q-62 121 -217 275h369q130 -164 158 -215q129 -228 50 -431q-74 -189 -440 -235q-193 -24 -340 31z" />
<glyph unicode="&#x62f;" horiz-adv-x="1183" arabic-form="final" d="M125 0v255q157 -61 266 -33q174 45 200 127q27 87 -46 226q-62 121 -217 275h369q130 -164 158 -215q46 -82 66 -161q27 -111 90 -174q44 -44 117 -44h75v-256h-130q-182 0 -236 105q-125 -105 -372 -136q-193 -24 -340 31z" />
<glyph unicode="&#x630;" horiz-adv-x="1051" arabic-form="isolated" d="M125 0v255q157 -61 266 -33q175 46 200 127q27 87 -46 226q-62 121 -217 275h369q130 -164 158 -215q129 -228 50 -431q-74 -189 -440 -235q-193 -24 -340 31zM425 1035v150h150v-150h-150z" />
<glyph unicode="&#x630;" horiz-adv-x="1183" arabic-form="final" d="M125 0v255q157 -61 266 -33q174 45 200 127q27 87 -46 226q-62 121 -217 275h369q130 -164 158 -215q46 -82 66 -161q27 -111 90 -174q44 -44 117 -44h75v-256h-130q-182 0 -236 105q-125 -105 -372 -136q-193 -24 -340 31zM425 1035v150h150v-150h-150z" />
<glyph unicode="&#x631;" horiz-adv-x="1179" arabic-form="isolated" d="M-85 -244q309 0 465 68q152 65 233 176q73 103 71 284q0 145 -52 266h358q50 -150 50 -266q0 -265 -88 -396q-127 -189 -350 -287q-230 -101 -687 -101v256z" />
<glyph unicode="&#x631;" horiz-adv-x="1274" arabic-form="final" d="M-85 -244q309 0 465 68q154 67 233 176q73 101 71 284q0 145 -52 266h358q11 -34 20 -66q34 -125 92 -184q44 -44 117 -44h75v-256h-130q-86 0 -152 26q-22 -81 -60 -138q-127 -189 -350 -287q-230 -101 -687 -101v256z" />
<glyph unicode="&#x632;" horiz-adv-x="1179" arabic-form="isolated" d="M-85 -244q309 0 465 68q152 65 233 176q73 103 71 284q0 145 -52 266h358q50 -150 50 -266q0 -265 -88 -396q-127 -189 -350 -287q-230 -101 -687 -101v256zM725 785v150h150v-150h-150z" />
<glyph unicode="&#x632;" horiz-adv-x="1274" arabic-form="final" d="M-85 -244q309 0 465 68q154 67 233 176q73 101 71 284q0 145 -52 266h358q11 -34 20 -66q34 -125 92 -184q44 -44 117 -44h75v-256h-130q-86 0 -152 26q-22 -81 -60 -138q-127 -189 -350 -287q-230 -101 -687 -101v256zM725 785v150h150v-150h-150z" />
<glyph unicode="&#x633;" horiz-adv-x="2826" arabic-form="isolated" d="M130 -22q0 196 105 376h358q-108 -206 -107 -376q1 -159 144 -200q38 -11 91 -11q110 0 188 58q89 67 128 135q58 104 58 220q0 122 -17 186l-64 234h358l36 -156q16 -74 44 -134q27 -59 110 -60q71 -1 95 53q37 84 37 297h358q0 -205 19 -255q36 -95 102 -95 q125 0 125 206v294h358v-342q0 -199 -92 -312q-72 -89 -213 -113q-67 -12 -180 -12q-81 0 -139 29q-149 72 -159 169q-35 -133 -173 -169q-72 -18 -142 -18q-86 0 -154 90q0 -183 -78 -301q-120 -181 -355 -245q-96 -26 -244 -26q-199 0 -304 36q-293 101 -293 442z" />
<glyph unicode="&#x633;" horiz-adv-x="2895" arabic-form="final" d="M130 -22q0 196 105 376h358q-108 -206 -107 -376q1 -159 144 -200q38 -11 91 -11q110 0 188 58q89 67 128 135q58 104 58 220q0 122 -17 186l-64 234h358l36 -156q16 -74 44 -134q26 -57 110 -60q74 -3 95 53q37 98 37 297h358q0 -205 19 -255q36 -95 102 -95 q125 0 125 206v294h358v-295q0 -106 49 -155q44 -44 112 -44h98v-256h-268q-80 0 -129 52q-88 -55 -167 -69q-61 -12 -180 -12q-81 0 -139 29q-149 72 -159 169q-35 -133 -173 -169q-72 -18 -142 -18q-86 0 -154 90q0 -183 -78 -301q-120 -181 -355 -245q-96 -26 -244 -26 q-199 0 -304 36q-293 101 -293 442z" />
<glyph unicode="&#x633;" horiz-adv-x="2014" arabic-form="initial" d="M-20 0v256h98q68 0 112 44q50 50 49 155l-1 145h358v-156q0 -36 45 -134q27 -59 110 -60q71 -1 95 53q37 84 37 297h358q0 -205 19 -255q36 -95 102 -95q125 0 125 206v294h358v-342q0 -199 -92 -312q-72 -89 -213 -113q-67 -12 -180 -12q-81 0 -139 29q-149 72 -159 169 q-35 -133 -173 -169q-72 -18 -142 -18q-255 0 -338 96q-74 -78 -161 -78h-268z" />
<glyph unicode="&#x633;" horiz-adv-x="2084" arabic-form="medial" d="M-20 0v256h98q68 0 112 44q50 50 49 155l-1 145h358v-156q0 -36 45 -134q27 -59 110 -60q71 -1 95 53q37 84 37 297h358q0 -205 19 -255q36 -95 102 -95q125 0 125 206v294h358v-295q0 -106 49 -155q44 -44 112 -44h98v-256h-268q-80 0 -129 52q-88 -55 -167 -69 q-67 -12 -180 -12q-81 0 -139 29q-149 72 -159 169q-35 -133 -173 -169q-72 -18 -142 -18q-255 0 -338 96q-74 -78 -161 -78h-268z" />
<glyph unicode="&#x634;" horiz-adv-x="2826" arabic-form="isolated" d="M130 -22q0 196 105 376h358q-108 -206 -107 -376q1 -159 144 -200q38 -11 91 -11q110 0 188 58q89 67 128 135q58 104 58 220q0 122 -17 186l-64 234h358l36 -156q16 -74 44 -134q27 -59 110 -60q71 -1 95 53q37 84 37 297h358q0 -205 19 -255q36 -95 102 -95 q125 0 125 206v294h358v-342q0 -199 -92 -312q-72 -89 -213 -113q-67 -12 -180 -12q-81 0 -139 29q-149 72 -159 169q-35 -133 -173 -169q-72 -18 -142 -18q-86 0 -154 90q0 -183 -78 -301q-120 -181 -355 -245q-96 -26 -244 -26q-199 0 -304 36q-293 101 -293 442z M1460 800v150h150v-150h-150zM1585 1050v150h150v-150h-150zM1710 800v150h150v-150h-150z" />
<glyph unicode="&#x634;" horiz-adv-x="2895" arabic-form="final" d="M130 -22q0 196 105 376h358q-108 -206 -107 -376q1 -159 144 -200q38 -11 91 -11q110 0 188 58q89 67 128 135q58 104 58 220q0 122 -17 186l-64 234h358l36 -156q16 -74 44 -134q26 -57 110 -60q74 -3 95 53q37 98 37 297h358q0 -205 19 -255q36 -95 102 -95 q125 0 125 206v294h358v-295q0 -106 49 -155q44 -44 112 -44h98v-256h-268q-80 0 -129 52q-88 -55 -167 -69q-61 -12 -180 -12q-81 0 -139 29q-149 72 -159 169q-35 -133 -173 -169q-72 -18 -142 -18q-86 0 -154 90q0 -183 -78 -301q-120 -181 -355 -245q-96 -26 -244 -26 q-199 0 -304 36q-293 101 -293 442zM1460 800v150h150v-150h-150zM1585 1050v150h150v-150h-150zM1710 800v150h150v-150h-150z" />
<glyph unicode="&#x634;" horiz-adv-x="2014" arabic-form="initial" d="M-20 0v256h98q68 0 112 44q50 50 49 155l-1 145h358v-156q0 -36 45 -134q27 -59 110 -60q71 -1 95 53q37 84 37 297h358q0 -205 19 -255q36 -95 102 -95q125 0 125 206v294h358v-342q0 -199 -92 -312q-72 -89 -213 -113q-67 -12 -180 -12q-81 0 -139 29q-149 72 -159 169 q-35 -133 -173 -169q-72 -18 -142 -18q-255 0 -338 96q-74 -78 -161 -78h-268zM810 800v150h150v-150h-150zM935 1050v150h150v-150h-150zM1060 800v150h150v-150h-150z" />
<glyph unicode="&#x634;" horiz-adv-x="2084" arabic-form="medial" d="M-20 0v256h98q68 0 112 44q50 50 49 155l-1 145h358v-156q0 -36 45 -134q27 -59 110 -60q71 -1 95 53q37 84 37 297h358q0 -205 19 -255q36 -95 102 -95q125 0 125 206v294h358v-295q0 -106 49 -155q44 -44 112 -44h98v-256h-268q-80 0 -129 52q-88 -55 -167 -69 q-67 -12 -180 -12q-81 0 -139 29q-149 72 -159 169q-35 -133 -173 -169q-72 -18 -142 -18q-255 0 -338 96q-74 -78 -161 -78h-268zM810 800v150h150v-150h-150zM935 1050v150h150v-150h-150zM1060 800v150h150v-150h-150z" />
<glyph unicode="&#x635;" horiz-adv-x="2755" arabic-form="isolated" d="M130 -22q0 196 105 376h358q-108 -206 -107 -376q1 -159 144 -200q38 -11 91 -11q110 0 188 58q89 67 128 135q58 104 58 220q0 90 -51 270h330q2 -30 15 -70q14 -45 50 -90q104 223 296 346q164 105 320 105q185 0 304 -51q231 -99 231 -292q0 -211 -184 -307 q-174 -91 -576 -91h-249q-61 0 -129 30q-27 12 -48 42q0 -183 -78 -301q-120 -181 -355 -245q-96 -26 -244 -26q-199 0 -304 36q-293 101 -293 442zM1763 256h68q157 0 283 50q118 47 118 102q0 28 -59 55q-53 22 -102 22q-75 -2 -185 -81q-67 -50 -123 -148z" />
<glyph unicode="&#x635;" horiz-adv-x="2794" arabic-form="final" d="M130 -22q0 196 105 376h358q-108 -206 -107 -376q1 -159 144 -200q38 -11 91 -11q110 0 188 58q89 67 128 135q58 104 58 220q0 90 -51 270h330q2 -30 15 -70q14 -45 50 -90q104 223 296 346q164 105 320 105q185 0 304 -51q231 -99 231 -292q0 -50 71 -107 q45 -35 87 -35h66v-256h-86q-189 0 -277 120q-21 -16 -45 -29q-163 -91 -576 -91h-249q-61 0 -129 30q-27 12 -48 42q0 -183 -78 -301q-120 -181 -355 -245q-96 -26 -244 -26q-199 0 -304 36q-293 101 -293 442zM1763 256h68q157 0 283 50q118 47 118 102q0 28 -59 55 q-53 22 -102 22q-75 -2 -185 -81q-67 -50 -123 -148z" />
<glyph unicode="&#x635;" horiz-adv-x="1979" arabic-form="initial" d="M-20 0v256h98q68 0 112 44q50 50 49 155l-1 145h358v-156q0 -101 67 -154q104 223 296 346q164 105 320 105q185 0 304 -51q231 -99 231 -292q0 -211 -184 -307q-174 -91 -576 -91h-276q-103 0 -198 30q-76 24 -124 84q-108 -114 -208 -114h-268zM987 256h68 q157 0 283 50q118 47 118 102q0 28 -59 55q-53 22 -102 22q-75 -2 -185 -81q-67 -50 -123 -148z" />
<glyph unicode="&#x635;" horiz-adv-x="2018" arabic-form="medial" d="M-20 0v256h98q68 0 112 44q50 50 49 155l-1 145h358v-156q0 -101 67 -154q104 223 296 346q164 105 320 105q185 0 304 -51q231 -99 231 -292q0 -50 71 -107q45 -35 87 -35h66v-256h-86q-189 0 -277 120q-25 -19 -45 -29q-167 -91 -576 -91h-276q-103 0 -198 30 q-76 24 -124 84q-108 -114 -208 -114h-268zM987 256h68q157 0 283 50q118 47 118 102q0 28 -59 55q-53 22 -102 22q-75 -2 -185 -81q-67 -50 -123 -148z" />
<glyph unicode="&#x636;" horiz-adv-x="2755" arabic-form="isolated" d="M130 -22q0 196 105 376h358q-108 -206 -107 -376q1 -159 144 -200q38 -11 91 -11q110 0 188 58q89 67 128 135q58 104 58 220q0 90 -51 270h330q2 -30 15 -70q14 -45 50 -90q104 223 296 346q164 105 320 105q185 0 304 -51q231 -99 231 -292q0 -211 -184 -307 q-174 -91 -576 -91h-249q-61 0 -129 30q-27 12 -48 42q0 -183 -78 -301q-120 -181 -355 -245q-96 -26 -244 -26q-199 0 -304 36q-293 101 -293 442zM1375 785v150h150v-150h-150zM1763 256h68q157 0 283 50q118 47 118 102q0 28 -59 55q-53 22 -102 22q-75 -2 -185 -81 q-67 -50 -123 -148z" />
<glyph unicode="&#x636;" horiz-adv-x="2794" arabic-form="final" d="M130 -22q0 196 105 376h358q-108 -206 -107 -376q1 -159 144 -200q38 -11 91 -11q110 0 188 58q89 67 128 135q58 104 58 220q0 90 -51 270h330q2 -30 15 -70q14 -45 50 -90q104 223 296 346q164 105 320 105q185 0 304 -51q231 -99 231 -292q0 -50 71 -107 q45 -35 87 -35h66v-256h-86q-189 0 -277 120q-21 -16 -45 -29q-163 -91 -576 -91h-249q-61 0 -129 30q-27 12 -48 42q0 -183 -78 -301q-120 -181 -355 -245q-96 -26 -244 -26q-199 0 -304 36q-293 101 -293 442zM1375 785v150h150v-150h-150zM1763 256h68q157 0 283 50 q118 47 118 102q0 28 -59 55q-53 22 -102 22q-75 -2 -185 -81q-67 -50 -123 -148z" />
<glyph unicode="&#x636;" horiz-adv-x="1979" arabic-form="initial" d="M-20 0v256h98q68 0 112 44q50 50 49 155l-1 145h358v-156q0 -101 67 -154q104 223 296 346q164 105 320 105q185 0 304 -51q231 -99 231 -292q0 -211 -184 -307q-174 -91 -576 -91h-276q-103 0 -198 30q-76 24 -124 84q-108 -114 -208 -114h-268zM625 835v150h150v-150 h-150zM987 256h68q157 0 283 50q118 47 118 102q0 28 -59 55q-53 22 -102 22q-75 -2 -185 -81q-67 -50 -123 -148z" />
<glyph unicode="&#x636;" horiz-adv-x="2018" arabic-form="medial" d="M-20 0v256h98q68 0 112 44q50 50 49 155l-1 145h358v-156q0 -101 67 -154q104 223 296 346q164 105 320 105q185 0 304 -51q231 -99 231 -292q0 -50 71 -107q45 -35 87 -35h66v-256h-86q-189 0 -277 120q-25 -19 -45 -29q-167 -91 -576 -91h-276q-103 0 -198 30 q-76 24 -124 84q-108 -114 -208 -114h-268zM625 835v150h150v-150h-150zM987 256h68q157 0 283 50q118 47 118 102q0 28 -59 55q-53 22 -102 22q-75 -2 -185 -81q-67 -50 -123 -148z" />
<glyph unicode="&#x637;" horiz-adv-x="2127" arabic-form="isolated" d="M144 0v256h336v1300h358v-1194q138 173 296 274q164 105 320 105q185 0 304 -51q231 -99 231 -292q0 -211 -184 -307q-174 -91 -576 -91h-652h-433zM1162 256h68q157 0 283 50q118 47 118 102q0 28 -59 55q-53 22 -102 22q-75 -2 -185 -81q-67 -50 -123 -148z" />
<glyph unicode="&#x637;" horiz-adv-x="2193" arabic-form="final" d="M144 0v256h336v1300h358v-1194q138 173 296 274q164 105 320 105q185 0 304 -51q231 -99 231 -292q0 -50 71 -107q45 -35 87 -35h66v-256h-86q-189 0 -277 120q-15 -11 -45 -29q-167 -91 -576 -91h-652h-433zM1162 256h68q157 0 283 50q118 47 118 102q0 28 -59 55 q-53 22 -102 22q-75 -2 -185 -81q-67 -50 -123 -148z" />
<glyph unicode="&#x637;" horiz-adv-x="1929" arabic-form="initial" d="M-20 0v256h302v1300h358v-1194q138 173 296 274q164 105 320 105q185 0 304 -51q231 -99 231 -292q0 -211 -184 -307q-174 -91 -576 -91h-652h-399zM964 256h68q157 0 283 50q118 47 118 102q0 28 -59 55q-53 22 -102 22q-75 -2 -185 -81q-67 -50 -123 -148z" />
<glyph unicode="&#x637;" horiz-adv-x="1995" arabic-form="medial" d="M-20 0v256h302v1300h358v-1194q138 173 296 274q164 105 320 105q185 0 304 -51q231 -99 231 -292q0 -50 71 -107q45 -35 87 -35h66v-256h-86q-189 0 -277 120q-15 -11 -45 -29q-167 -91 -576 -91h-652h-399zM964 256h68q157 0 283 50q118 47 118 102q0 28 -59 55 q-53 22 -102 22q-75 -2 -185 -81q-67 -50 -123 -148z" />
<glyph unicode="&#x638;" horiz-adv-x="2127" arabic-form="isolated" d="M144 0v256h336v1300h358v-1194q138 173 296 274q164 105 320 105q185 0 304 -51q231 -99 231 -292q0 -211 -184 -307q-174 -91 -576 -91h-652h-433zM1135 835v150h150v-150h-150zM1162 256h68q157 0 283 50q118 47 118 102q0 28 -59 55q-53 22 -102 22q-75 -2 -185 -81 q-67 -50 -123 -148z" />
<glyph unicode="&#x638;" horiz-adv-x="2193" arabic-form="final" d="M144 0v256h336v1300h358v-1194q138 173 296 274q164 105 320 105q185 0 304 -51q231 -99 231 -292q0 -50 71 -107q45 -35 87 -35h66v-256h-86q-189 0 -277 120q-15 -11 -45 -29q-167 -91 -576 -91h-652h-433zM1135 835v150h150v-150h-150zM1162 256h68q157 0 283 50 q118 47 118 102q0 28 -59 55q-53 22 -102 22q-75 -2 -185 -81q-67 -50 -123 -148z" />
<glyph unicode="&#x638;" horiz-adv-x="1929" arabic-form="initial" d="M-20 0v256h302v1300h358v-1194q138 173 296 274q164 105 320 105q185 0 304 -51q231 -99 231 -292q0 -211 -184 -307q-174 -91 -576 -91h-652h-399zM937 835v150h150v-150h-150zM964 256h68q157 0 283 50q118 47 118 102q0 28 -59 55q-53 22 -102 22q-75 -2 -185 -81 q-67 -50 -123 -148z" />
<glyph unicode="&#x638;" horiz-adv-x="1995" arabic-form="medial" d="M-20 0v256h302v1300h358v-1194q138 173 296 274q164 105 320 105q185 0 304 -51q231 -99 231 -292q0 -50 71 -107q45 -35 87 -35h66v-256h-86q-189 0 -277 120q-15 -11 -45 -29q-167 -91 -576 -91h-652h-399zM937 835v150h150v-150h-150zM964 256h68q157 0 283 50 q118 47 118 102q0 28 -59 55q-53 22 -102 22q-75 -2 -185 -81q-67 -50 -123 -148z" />
<glyph unicode="&#x639;" horiz-adv-x="1399" arabic-form="isolated" d="M179 0q0 214 121 353q48 55 94 81q-50 4 -98 34q-89 56 -88 217q1 150 227 312q119 85 530 69v-256q-233 6 -311 -32q-93 -45 -93 -125q0 -49 48 -77q46 -28 172 19q149 55 412 73v-256q-363 -51 -483 -132q-173 -118 -173 -255q0 -103 103 -192q90 -78 327 -77 q301 0 507 153v-275q-164 -134 -502 -134q-473 1 -636 162q-157 154 -157 338z" />
<glyph unicode="&#x639;" horiz-adv-x="1399" arabic-form="final" d="M117 0q0 138 87 254q82 112 135 143q-43 31 -72 73q-30 42 -30 84q0 34 13 77q16 55 120 107q89 45 292 45t292 -45q104 -52 120 -107q13 -41 13 -77q0 -42 -30 -84q-33 -47 -117 -112q41 -35 101 -56q134 -46 282 -46h96v-256h-118q-461 0 -680 213q-146 -89 -146 -213 q0 -78 103 -167q90 -78 327 -77q303 1 507 153v-275q-164 -134 -502 -134q-473 1 -636 162q-157 154 -157 338z" />
<glyph unicode="&#x639;" horiz-adv-x="1399" arabic-form="initial" d="M-20 0v256h110q175 0 304 41q-100 84 -139 148q-58 97 -47 235q11 142 212 285q127 90 545 101v-256q-178 5 -290 -55q-120 -64 -120 -150q0 -110 60 -150q91 -61 166 -41q180 48 412 146v-256q-189 -94 -493 -189q-368 -115 -585 -115h-135z" />
<glyph unicode="&#x639;" horiz-adv-x="1156" arabic-form="medial" d="M-20 0v256h96q105 0 164 46q17 13 60 56q-84 65 -117 112q-30 42 -30 84q0 36 13 77q16 55 120 107q89 45 292 45t292 -45q104 -52 120 -107q13 -41 13 -77q0 -42 -30 -84q-33 -47 -117 -112q43 -43 60 -56q59 -46 164 -46h96v-256h-118q-230 0 -480 163 q-250 -163 -480 -163h-118z" />
<glyph unicode="&#x63a;" horiz-adv-x="1399" arabic-form="isolated" d="M179 0q0 214 121 353q48 55 94 81q-50 4 -98 34q-89 56 -88 217q1 150 227 312q119 85 530 69v-256q-233 6 -311 -32q-93 -45 -93 -125q0 -49 48 -77q46 -28 172 19q149 55 412 73v-256q-363 -51 -483 -132q-173 -118 -173 -255q0 -103 103 -192q90 -78 327 -77 q301 0 507 153v-275q-164 -134 -502 -134q-473 1 -636 162q-157 154 -157 338zM475 1185v150h150v-150h-150z" />
<glyph unicode="&#x63a;" horiz-adv-x="1399" arabic-form="final" d="M117 0q0 138 87 254q82 112 135 143q-43 31 -72 73q-30 42 -30 84q0 34 13 77q16 55 120 107q89 45 292 45t292 -45q104 -52 120 -107q13 -41 13 -77q0 -42 -30 -84q-33 -47 -117 -112q41 -35 101 -56q134 -46 282 -46h96v-256h-118q-461 0 -680 213q-146 -89 -146 -213 q0 -78 103 -167q90 -78 327 -77q303 1 507 153v-275q-164 -134 -502 -134q-473 1 -636 162q-157 154 -157 338zM575 935v150h150v-150h-150z" />
<glyph unicode="&#x63a;" horiz-adv-x="1399" arabic-form="initial" d="M-20 0v256h110q175 0 304 41q-100 84 -139 148q-58 97 -47 235q11 142 212 285q127 90 545 101v-256q-178 5 -290 -55q-120 -64 -120 -150q0 -110 60 -150q91 -61 166 -41q180 48 412 146v-256q-189 -94 -493 -189q-368 -115 -585 -115h-135zM475 1185v150h150v-150h-150 z" />
<glyph unicode="&#x63a;" horiz-adv-x="1156" arabic-form="medial" d="M-20 0v256h96q105 0 164 46q17 13 60 56q-84 65 -117 112q-30 42 -30 84q0 36 13 77q16 55 120 107q89 45 292 45t292 -45q104 -52 120 -107q13 -41 13 -77q0 -42 -30 -84q-33 -47 -117 -112q43 -43 60 -56q59 -46 164 -46h96v-256h-118q-230 0 -480 163 q-250 -163 -480 -163h-118zM503 935v150h150v-150h-150z" />
<glyph unicode="&#x641;" horiz-adv-x="2379" arabic-form="isolated" d="M130 314q0 112 63 230h358q-73 -135 -51 -184q46 -102 189 -127q134 -25 330 -25q232 0 508 47q231 39 268 99q-55 -20 -122 -20q-222 4 -316 86q-98 84 -98 216q0 52 8 96q25 160 173 217q109 42 262 43q236 0 339 -57q81 -45 142 -209q33 -89 33 -262q0 -186 -113 -311 q-95 -105 -296 -143q-313 -59 -813 -59q-496 -1 -534 8q-330 77 -330 355zM1617 656q0 -40 35 -69q22 -18 70 -18q52 0 81 22q36 28 36 66q0 59 -50 88q-28 16 -71 15q-47 0 -75 -29q-26 -26 -26 -75zM1650 1135v150h150v-150h-150z" />
<glyph unicode="&#x641;" horiz-adv-x="2439" arabic-form="final" d="M130 314q-1 138 63 230h358q-51 -94 -51 -184q0 -70 189 -136q72 -25 330 -25q345 0 409 10q-13 12 -24 25q-140 160 -140 334q0 103 24 168q49 134 164 198q104 58 250 58q198 0 339 -66q87 -41 139 -158q36 -81 36 -236q0 -131 -88 -261q125 -15 284 -15h47v-256h-107 q-193 0 -352 15q-64 5 -122 14l-71 -29q-100 -56 -813 -58q-405 -1 -534 28q-329 75 -330 344zM1617 575q0 -101 67 -164q26 -25 80 -48q75 95 75 209q0 74 -50 134q-25 30 -71 30q-48 0 -75 -42q-26 -41 -26 -119zM1650 1135v150h150v-150h-150z" />
<glyph unicode="&#x641;" horiz-adv-x="1341" arabic-form="initial" d="M-20 0v256h576q59 0 96 9q82 20 105 89q-1 -6 -122 -5q-235 0 -316 71q-98 84 -98 216q0 52 8 96q28 161 173 217q109 42 262 43q233 1 339 -57q81 -45 142 -209q33 -89 33 -262q0 -151 -113 -311q-47 -66 -189 -117q-101 -36 -240 -36h-656zM579 656q0 -40 35 -69 q22 -18 70 -18q52 0 81 22q36 28 36 66q0 59 -50 88q-28 16 -71 15q-47 0 -75 -29q-26 -26 -26 -75zM600 1135v150h150v-150h-150z" />
<glyph unicode="&#x641;" horiz-adv-x="1474" arabic-form="medial" d="M-20 0v256h47q196 0 363 20q-167 130 -167 256q0 155 36 236q52 117 139 158q141 66 339 66t339 -66q87 -41 139 -158q36 -81 36 -236q0 -126 -167 -256q167 -20 363 -20h47v-256h-107q-193 0 -352 15q-196 19 -298 69q-102 -50 -298 -69q-159 -15 -352 -15h-107z M600 572q0 -104 137 -156q137 52 137 156q0 78 -46 133q-25 30 -91 30t-91 -30q-46 -55 -46 -133zM662 1135v150h150v-150h-150z" />
<glyph unicode="&#x642;" horiz-adv-x="1831" arabic-form="isolated" d="M107 36q0 180 82 396h358q-85 -185 -88 -340q-1 -50 11 -112q30 -163 185 -164q217 0 374 98q305 196 305 470q-74 -50 -188 -50q-218 0 -316 86q-98 84 -98 216q0 52 8 96q25 160 173 217q109 42 262 43q236 0 339 -57q81 -45 142 -209q33 -89 33 -262q0 -206 -60 -344 q-104 -239 -340 -402q-229 -158 -639 -158q-333 1 -466 192q-77 110 -77 284zM1000 1150v150h150v-150h-150zM1090 656q0 -40 35 -69q22 -18 70 -18q52 0 81 22q36 28 36 66q0 59 -50 88q-28 16 -71 15q-47 0 -75 -29q-26 -26 -26 -75zM1250 1150v150h150v-150h-150z" />
<glyph unicode="&#x642;" horiz-adv-x="1846" arabic-form="final" d="M107 -65q8 120 47 165h358q-53 -45 -53 -109q0 -58 11 -86q60 -149 230 -149q265 0 433 98q108 64 134 146q-22 0 -121 2q-223 5 -316 86q-98 84 -98 216q0 52 8 96q28 161 173 217q109 42 262 43q244 1 339 -57q89 -55 142 -209q20 -57 27 -138h183v-256h-202 q-19 -110 -90 -212q-95 -131 -270 -193q-279 -99 -609 -95q-382 3 -511 192q-84 123 -77 243zM1000 825v150h150v-150h-150zM1090 340q0 -45 35 -64q36 -19 70 -19h122q0 39 -5 68q-6 41 -53 80q-29 24 -68 23q-42 -1 -71 -30q-30 -30 -30 -58zM1250 825v150h150v-150h-150z " />
<glyph unicode="&#x642;" horiz-adv-x="1341" arabic-form="initial" d="M-20 0v256h576q59 0 96 9q82 20 105 89q-1 -6 -122 -5q-235 0 -316 71q-98 84 -98 216q0 52 8 96q28 161 173 217q109 42 262 43q233 1 339 -57q81 -45 142 -209q33 -89 33 -262q0 -151 -113 -311q-47 -66 -189 -117q-101 -36 -240 -36h-656zM475 1150v150h150v-150h-150 zM579 656q0 -40 35 -69q22 -18 70 -18q52 0 81 22q36 28 36 66q0 59 -50 88q-28 16 -71 15q-47 0 -75 -29q-26 -26 -26 -75zM725 1150v150h150v-150h-150z" />
<glyph unicode="&#x642;" horiz-adv-x="1474" arabic-form="medial" d="M-20 0v256h47q196 0 363 20q-167 130 -167 256q0 155 36 236q52 117 139 158q141 66 339 66t339 -66q87 -41 139 -158q36 -81 36 -236q0 -126 -167 -256q167 -20 363 -20h47v-256h-107q-193 0 -352 15q-196 19 -298 69q-102 -50 -298 -69q-159 -15 -352 -15h-107z M537 1150v150h150v-150h-150zM600 572q0 -104 137 -156q137 52 137 156q0 78 -46 133q-25 30 -91 30t-91 -30q-46 -55 -46 -133zM787 1150v150h150v-150h-150z" />
<glyph unicode="&#x643;" horiz-adv-x="1877" arabic-form="isolated" d="M144 260q0 75 16 128h358q-14 -34 -14 -61q0 -46 162 -105q58 -21 183 -21q115 0 216 33q121 39 172 107q73 97 73 270v945h358v-945q0 -327 -110 -450q-150 -168 -370 -198q-140 -19 -334 -18q-315 2 -417 32q-293 88 -293 283zM651 617v121q68 -9 113 -9q85 0 117 14 q60 26 60 67q0 23 -78 42q-64 16 -92 57q-32 47 -31 93q2 80 77 119q82 43 256 47v-115q-59 1 -112 -6q-80 -11 -80 -42q0 -43 38 -65q35 -20 56 -26q102 -32 102 -117q-1 -110 -88 -152q-82 -39 -216 -39q-66 0 -122 11z" />
<glyph unicode="&#x643;" horiz-adv-x="1907" arabic-form="final" d="M144 260q0 75 16 128h358q-14 -34 -14 -61q0 -46 162 -105q58 -21 183 -21q115 0 216 33q121 39 172 107q73 97 73 270v945h358v-1101q0 -106 49 -155q44 -44 112 -44h98v-256h-357q-75 0 -136 53q-110 -71 -246 -90q-140 -19 -334 -18q-315 2 -417 32q-293 88 -293 283z M651 617v121q68 -9 113 -9q85 0 117 14q60 26 60 67q0 23 -78 42q-64 16 -92 57q-32 47 -31 93q2 80 77 119q82 43 256 47v-115q-59 1 -112 -6q-80 -11 -80 -42q0 -43 38 -65q35 -20 56 -26q102 -32 102 -117q-1 -110 -88 -152q-82 -39 -216 -39q-66 0 -122 11z" />
<glyph unicode="&#x643;" horiz-adv-x="1191" arabic-form="initial" d="M-20 0v256h396q114 0 131 39q16 36 16 72q0 28 -78 128l-297 380q-50 63 -50 142q0 35 10 68q34 128 135 161l948 310v-256l-571 -199q-68 -24 -92 -70q-6 -11 -6 -36q0 -27 31 -69l231 -311q156 -210 156 -300q0 -168 -101 -240q-106 -75 -341 -75h-518z" />
<glyph unicode="&#x643;" horiz-adv-x="1191" arabic-form="medial" d="M-20 0v256h396q114 0 131 39q16 36 16 72q0 28 -78 128l-297 380q-50 63 -50 142q0 35 10 68q34 128 135 161l948 310v-256l-571 -199q-68 -24 -92 -70q-6 -11 -6 -36q0 -28 31 -69l419 -560q36 -48 84 -84q35 -26 90 -26h65v-256h-143q-154 0 -229 75q-106 -75 -341 -75 h-518z" />
<glyph unicode="&#x644;" horiz-adv-x="1777" arabic-form="isolated" d="M144 75q-1 138 63 230h358q-71 -102 -65 -230q5 -114 166 -148q130 -27 269 18q161 52 222 128q78 97 78 353v1130h358v-1130q0 -317 -98 -461q-116 -170 -382 -243q-351 -96 -676 -12q-292 76 -293 365z" />
<glyph unicode="&#x644;" horiz-adv-x="1828" arabic-form="final" d="M144 75q-1 138 63 230h358q-71 -102 -65 -230q5 -114 166 -148q130 -27 269 18q161 52 222 128q78 97 78 353v1130h358v-1130q0 -77 49 -126q44 -44 112 -44h94v-256h-247q-66 0 -77 16q-112 -212 -411 -294q-350 -97 -676 -12q-292 76 -293 365z" />
<glyph unicode="&#x644;" horiz-adv-x="769" arabic-form="initial" d="M-20 0v256h98q68 0 112 44q49 49 49 155v1101h358v-1185q0 -182 -68 -279q-64 -92 -192 -92h-357z" />
<glyph unicode="&#x644;" horiz-adv-x="836" arabic-form="medial" d="M-20 0v256h98q68 0 112 44q49 49 49 155v1101h358v-1101q0 -106 49 -155q44 -44 112 -44h98v-256h-251q-110 0 -187 109q-77 -109 -187 -109h-251z" />
<glyph unicode="&#x645;" horiz-adv-x="1501" arabic-form="isolated" d="M140 0q0 223 120 292q149 85 240 97l-2 23q0 148 162 280q77 63 236 63q158 0 237 -36q187 -85 210 -250q8 -53 8 -101q0 -142 -98 -211q-120 -85 -318 -85q-278 0 -360 67q-22 18 -59 -50q-18 -32 -18 -89v-500h-358v500zM827 396q0 -28 10 -54q26 -14 85 -14 q39 0 66 19q34 23 34 51q0 41 -23 64q-12 12 -44 32q-11 8 -51 6q-32 -2 -48 -21q-29 -31 -29 -83z" />
<glyph unicode="&#x645;" horiz-adv-x="1606" arabic-form="final" d="M140 -120q0 223 120 292q149 85 240 97l-2 23q0 148 162 280q77 63 236 63q158 0 237 -36q138 -63 187 -169q48 -105 78 -140q29 -34 153 -34h75v-256h-130q-179 0 -215 59q-21 -17 -28 -22q-120 -85 -318 -85q-278 0 -360 67q-22 18 -59 -50q-18 -32 -18 -89v-380h-358 v380zM827 276q0 -28 10 -54q26 -14 85 -14q39 0 66 19q34 23 34 51q0 41 -23 64q-12 12 -44 32q-11 8 -51 6q-32 -2 -48 -21q-29 -31 -29 -83z" />
<glyph unicode="&#x645;" horiz-adv-x="1268" arabic-form="initial" d="M-20 0v256h117q62 0 117 38q46 31 69 94q36 96 144 184q77 63 236 63q158 0 237 -36q187 -85 210 -250q8 -53 8 -101q0 -142 -98 -211q-120 -85 -318 -85q-236 0 -360 67q-26 14 -33 29q-64 -48 -168 -48h-161zM570 248q60 -40 119 -40q39 0 66 19q34 23 34 51 q0 41 -23 64q-6 6 -44 32q-11 8 -51 6q-31 -2 -48 -21q-30 -33 -35 -63q-4 -28 -18 -48z" />
<glyph unicode="&#x645;" horiz-adv-x="1373" arabic-form="medial" d="M-20 0v256h117q62 0 117 38q46 31 69 94q36 96 144 184q77 63 236 63q162 0 237 -36q140 -68 187 -169q48 -105 78 -140q29 -34 153 -34h75v-256h-130q-179 0 -215 59q-21 -17 -28 -22q-120 -85 -318 -85q-236 0 -360 67q-26 14 -33 29q-64 -48 -168 -48h-161zM570 248 q60 -40 119 -40q39 0 66 19q34 23 34 51q0 41 -23 64q-6 6 -44 32q-11 8 -51 6q-31 -2 -48 -21q-30 -33 -35 -63q-4 -28 -18 -48z" />
<glyph unicode="&#x646;" horiz-adv-x="1748" arabic-form="isolated" d="M126 168q0 140 40 316h358q-42 -160 -42 -293q0 -178 201 -252q55 -20 133 -20q56 0 117 16q213 54 269 215q33 95 33 214q0 164 -101 386h358q103 -164 104 -438q1 -173 -100 -351q-125 -220 -359 -265q-177 -34 -317 -34q-192 0 -345 44q-349 99 -349 462zM675 785v150 h150v-150h-150z" />
<glyph unicode="&#x646;" horiz-adv-x="1843" arabic-form="final" d="M126 6q0 140 40 316h358q-42 -160 -42 -293q0 -178 201 -252q55 -21 133 -21q56 0 117 17q214 56 269 215q33 95 33 214q0 164 -101 386h358q29 -45 37 -63q40 -97 50 -108q131 -160 236 -160h48v-257h-63q-168 1 -211 60q0 -98 -93 -261q-127 -220 -359 -265 q-177 -34 -317 -34q-192 0 -345 44q-349 99 -349 462zM675 635v150h150v-150h-150z" />
<glyph unicode="&#x646;" horiz-adv-x="769" arabic-form="initial" d="M-20 0v256h98q68 0 112 44q49 49 49 155v145h358v-229q0 -182 -68 -279q-64 -92 -192 -92h-357zM343 835v150h150v-150h-150z" />
<glyph unicode="&#x646;" horiz-adv-x="836" arabic-form="medial" d="M-20 0v256h98q68 0 112 44q49 49 49 155v145h358v-145q0 -106 49 -155q44 -44 112 -44h98v-256h-251q-110 0 -187 109q-77 -109 -187 -109h-251zM343 835v150h150v-150h-150z" />
<glyph unicode="&#x647;" horiz-adv-x="1209" arabic-form="isolated" d="M98 290q-1 181 37 259q91 185 399 185q219 0 431 -160q143 -108 141 -272q-2 -170 -148 -275q-120 -86 -355 -87q-172 0 -312 41q-191 57 -193 309zM456 315q1 -68 59 -101q32 -18 87 -18q40 0 81 26q65 42 65 87q0 42 -47 91q-75 80 -131 80q-85 0 -100 -43 q-15 -44 -14 -122z" />
<glyph unicode="&#x647;" horiz-adv-x="1242" arabic-form="final" d="M133 285q0 190 216 328q106 68 308 83q-5 33 -5 54h358q2 -200 37 -342q20 -82 61 -108q68 -44 79 -44h75v-256h-224q-92 0 -163 34q-66 31 -83 66q-108 -65 -344 -64q-56 0 -114 15q-201 48 -201 234zM491 327q0 -48 68 -48q97 0 144 38q-14 40 -22 91q-4 27 -9 50 q-95 -10 -136 -42q-45 -35 -45 -89z" />
<glyph unicode="&#x647;" horiz-adv-x="1420" arabic-form="initial" d="M-20 0v256h107q79 0 157 11q-54 62 -64 84q-36 72 -36 141q0 112 120 210q46 38 126 56q-87 18 -145 23v256q437 -57 718 -267q249 -186 315 -368q19 -52 19 -109q0 -160 -94 -247q-122 -113 -355 -113q-224 0 -371 103q-105 -36 -360 -36h-137zM488 432q1 -35 16 -54 q21 -27 45 -48q99 60 99 105q0 38 -15 69q-16 33 -55 33q-46 0 -74 -45q-18 -30 -16 -60zM773 192q29 -5 50 -5q122 0 142 67q7 30 7 63q0 36 -36 97q-4 7 -5 7q-22 -62 -56 -112q-42 -61 -102 -117z" />
<glyph unicode="&#x647;" horiz-adv-x="1352" arabic-form="medial" d="M-20 0v256h199q5 196 161 358q136 142 352 142q260 1 380 -84q87 -64 87 -168q0 -120 -163 -248h376v-256h-376q163 -128 163 -248q0 -104 -87 -168q-120 -85 -380 -84q-216 0 -352 142q-156 162 -161 358h-199zM537 0q0 -118 54 -189q45 -57 117 -57q100 0 100 49 q0 52 -95 129q-84 68 -157 68h-19zM537 256h19q73 0 157 68q95 77 95 129q0 49 -100 49q-72 0 -117 -57q-54 -71 -54 -189z" />
<glyph unicode="&#x648;" horiz-adv-x="1273" arabic-form="isolated" d="M-85 -244q239 -8 411 19q178 29 261 82q101 64 127 143q-32 0 -131 2q-223 5 -316 86q-98 84 -98 216q0 52 8 96q28 161 173 217q109 42 262 43q220 0 325 -57t156 -209q27 -82 27 -238q0 -204 -89 -348q-93 -151 -313 -225q-246 -83 -803 -83v256zM527 340q0 -45 35 -64 q36 -19 70 -19h122q0 39 -5 68q-6 41 -53 80q-29 24 -68 23q-42 -1 -71 -30q-30 -30 -30 -58z" />
<glyph unicode="&#x648;" horiz-adv-x="1284" arabic-form="final" d="M-85 -244q239 -8 411 19q174 28 261 82q101 64 127 143q-32 0 -131 2q-223 5 -316 86q-98 84 -98 216q0 52 8 96q28 161 173 217q109 42 262 43q244 1 339 -57q89 -55 142 -209q20 -57 27 -138h184v-256h-201q-9 -91 -72 -192q-95 -151 -313 -225q-246 -83 -803 -83v256z M527 340q0 -45 35 -64q36 -19 70 -19h122q0 39 -5 68q-6 41 -53 80q-29 24 -68 23q-42 -1 -71 -30q-30 -30 -30 -58z" />
<glyph unicode="&#x649;" horiz-adv-x="1877" arabic-form="isolated" d="M130 175q-1 138 63 230h358q-70 -101 -65 -230q3 -78 130 -121q51 -17 176 -17q147 0 280 35q247 66 249 160q1 96 -123 138q-179 61 -180 61q-73 32 -125 78q-64 57 -65 172q-2 168 190 224q140 41 282 41q173 0 278 -46q163 -71 190 -253h-318q-22 69 -137 68 q-91 -1 -114 -30q-26 -33 -25 -43q3 -36 125 -66q216 -53 305 -165q76 -96 77 -195q1 -75 -41 -151q-89 -157 -492 -243q-197 -41 -336 -41q-305 -1 -389 29q-292 106 -293 365z" />
<glyph unicode="&#x649;" horiz-adv-x="2072" arabic-form="final" d="M130 124q-1 139 63 230h358q-70 -101 -65 -230q2 -68 130 -110q51 -17 212 -17q186 0 316 35q146 40 146 74q-1 26 -27 43q-54 37 -65 48q-31 37 -31 121q0 98 48 145q74 73 124 96q76 35 225 35q257 0 360 -184q86 -154 139 -154h29v-256h-61q-171 0 -281 180 q-90 147 -158 147q-18 0 -25 -3q-45 -17 -45 -55q0 -44 57 -68q66 -27 66 -147q0 -179 -425 -272q-190 -41 -372 -41q-341 -1 -425 29q-292 105 -293 354z" />
<glyph unicode="&#x64a;" horiz-adv-x="1877" arabic-form="isolated" d="M130 175q-1 138 63 230h358q-70 -101 -65 -230q3 -78 130 -121q51 -17 176 -17q147 0 280 35q247 66 249 160q1 96 -123 138q-179 61 -180 61q-73 32 -125 78q-64 57 -65 172q-2 168 190 224q140 41 282 41q173 0 278 -46q163 -71 190 -253h-318q-22 69 -137 68 q-91 -1 -114 -30q-26 -33 -25 -43q3 -36 125 -66q216 -53 305 -165q76 -96 77 -195q1 -75 -41 -151q-89 -157 -492 -243q-197 -41 -336 -41q-305 -1 -389 29q-292 106 -293 365zM650 -350h150v-150h-150v150zM900 -350h150v-150h-150v150z" />
<glyph unicode="&#x64a;" horiz-adv-x="2072" arabic-form="final" d="M130 124q-1 139 63 230h358q-70 -101 -65 -230q2 -68 130 -110q51 -17 212 -17q186 0 316 35q146 40 146 74q-1 26 -27 43q-54 37 -65 48q-31 37 -31 121q0 98 48 145q74 73 124 96q76 35 225 35q257 0 360 -184q86 -154 139 -154h29v-256h-61q-171 0 -281 180 q-90 147 -158 147q-18 0 -25 -3q-45 -17 -45 -55q0 -44 57 -68q66 -27 66 -147q0 -179 -425 -272q-190 -41 -372 -41q-341 -1 -425 29q-292 105 -293 354zM650 -350h150v-150h-150v150zM900 -350h150v-150h-150v150z" />
<glyph unicode="&#x64a;" horiz-adv-x="769" arabic-form="initial" d="M-20 0v256h98q68 0 112 44q49 49 49 155v145h358v-229q0 -182 -68 -279q-64 -92 -192 -92h-357zM218 -190h150v-150h-150v150zM468 -190h150v-150h-150v150z" />
<glyph unicode="&#x64a;" horiz-adv-x="836" arabic-form="medial" d="M-20 0v256h98q68 0 112 44q49 49 49 155v145h358v-145q0 -106 49 -155q44 -44 112 -44h98v-256h-251q-110 0 -187 109q-77 -109 -187 -109h-251zM218 -190h150v-150h-150v150zM468 -190h150v-150h-150v150z" />
<glyph unicode="&#xd;" horiz-adv-x="682" />
<glyph unicode=" "  horiz-adv-x="713" />
<glyph unicode="&#x09;" horiz-adv-x="713" />
<glyph unicode="&#xa0;" horiz-adv-x="713" />
<glyph unicode="!" horiz-adv-x="934" d="M287 0v356h360v-356h-360zM287 920v573h360v-573l-51 -418h-258z" />
<glyph unicode="&#x22;" horiz-adv-x="1067" d="M195 938v555h237v-555h-237zM635 938v555h237v-555h-237z" />
<glyph unicode="#" d="M139 383v215h328l70 274h-283v213h338l96 385h223l-96 -385h264l97 385h221l-97 -385h277v-213h-330l-69 -274h284v-215h-336l-96 -383h-221l96 383h-264l-96 -383h-223l96 383h-279zM690 598h264l70 274h-264z" />
<glyph unicode="$" horiz-adv-x="1425" d="M160 936q0 179 122.5 279.5t349.5 109.5l1 231h162v-227q100 -8 200 -25t201 -44v-254q-100 42 -200 65.5t-201 28.5v-287l32 -6q254 -40 356.5 -133.5t102.5 -276.5q0 -184 -122 -282.5t-369 -112.5v-303h-162l-1 301q-125 5 -242 28t-228 64v262q115 -59 232.5 -90.5 t238.5 -35.5v311l-33 6q-239 42 -339.5 132t-100.5 259zM477 971q0 -59 39 -92.5t117 -42.5v261q-71 -4 -113.5 -38.5t-42.5 -87.5zM795 232q87 1 130.5 34t43.5 99q0 68 -40 101.5t-134 43.5v-278z" />
<glyph unicode="%" horiz-adv-x="2052" d="M66 1114q0 189 106.5 297.5t292.5 108.5t292.5 -108.5t106.5 -297.5t-106.5 -298t-292.5 -109t-292.5 109t-106.5 298zM315 1114q0 -115 39 -177.5t111 -62.5t110.5 62.5t38.5 177.5q0 114 -39 176t-110 62q-72 0 -111 -62t-39 -176zM449 -29l933 1549h222l-934 -1549 h-221zM1186 379q0 188 107.5 296.5t293.5 108.5t293 -108t107 -297t-107 -298.5t-293 -109.5t-293.5 109.5t-107.5 298.5zM1438 379q0 -115 38.5 -176.5t110.5 -61.5t110 61.5t38 176.5q0 114 -38.5 175.5t-109.5 61.5t-110 -61.5t-39 -175.5z" />
<glyph unicode="&#x26;" horiz-adv-x="1786" d="M123 467q0 146 71.5 258.5t233.5 218.5q-42 53 -62 106t-20 111q0 163 127 261t338 98q91 0 189.5 -14.5t205.5 -43.5v-278q-94 48 -178 71t-164 23q-77 0 -119.5 -29.5t-42.5 -83.5q0 -34 24.5 -77.5t72.5 -96.5l409 -450q53 70 80.5 157t32.5 197h311 q-15 -182 -70.5 -324t-154.5 -249l293 -322h-424l-98 109q-105 -70 -221 -104t-246 -34q-263 0 -425.5 138.5t-162.5 357.5zM469 506q0 -115 85 -196t204 -81q67 0 125 20.5t108 61.5l-391 432q-65 -47 -98 -106.5t-33 -130.5z" />
<glyph unicode="'" horiz-adv-x="627" d="M195 938v555h237v-555h-237z" />
<glyph unicode="(" horiz-adv-x="936" d="M176 641q0 219 73.5 443.5t225.5 469.5h297q-128 -237 -192 -463.5t-64 -447.5t63.5 -448t192.5 -465h-297q-153 247 -226 469.5t-73 441.5z" />
<glyph unicode=")" horiz-adv-x="936" d="M164 -270q128 238 192 465t64 448t-64 447.5t-192 463.5h297q152 -245 225.5 -469.5t73.5 -443.5t-73 -441.5t-226 -469.5h-297z" />
<glyph unicode="*" horiz-adv-x="1071" d="M41 870l334 174l-334 173l76 141l334 -182v344h170v-344l333 182l76 -141l-330 -173l330 -174l-76 -141l-333 184v-344h-170v344l-334 -184z" />
<glyph unicode="+" d="M217 524v236h522v524h238v-524h522v-236h-522v-524h-238v524h-522z" />
<glyph unicode="," horiz-adv-x="778" d="M109 -291l100 373v305h360v-305l-247 -373h-213z" />
<glyph unicode="-" horiz-adv-x="850" d="M111 444v291h628v-291h-628z" />
<glyph unicode="." horiz-adv-x="778" d="M209 0v387h360v-387h-360z" />
<glyph unicode="/" horiz-adv-x="748" d="M0 -190l526 1683h222l-527 -1683h-221z" />
<glyph unicode="0" horiz-adv-x="1425" d="M98 745q0 372 160 573.5t455 201.5q294 0 454 -201.5t160 -573.5q0 -371 -160 -572.5t-454 -201.5q-295 0 -455 201.5t-160 572.5zM483 748q0 -283 53 -399t177 -116q123 0 176 116t53 399q0 280 -52.5 394.5t-176.5 114.5t-177 -114.5t-53 -394.5z" />
<glyph unicode="1" horiz-adv-x="1425" d="M231 1159v262l347 72h366v-1227h340v-266h-1044v266h340v965z" />
<glyph unicode="2" horiz-adv-x="1425" d="M162 0v283l545 481q73 66 108 129t35 131q0 105 -70.5 169t-187.5 64q-90 0 -197 -38.5t-229 -114.5v328q130 43 257 65.5t249 22.5q268 0 416.5 -118t148.5 -329q0 -122 -63 -227.5t-265 -282.5l-319 -280h657v-283h-1085z" />
<glyph unicode="3" horiz-adv-x="1425" d="M137 45v297q108 -54 214.5 -81.5t209.5 -27.5q153 0 234.5 53t81.5 152q0 102 -83.5 154.5t-246.5 52.5h-154v248h162q145 0 216 45.5t71 138.5q0 86 -69 133t-195 47q-93 0 -188 -21t-189 -62v282q114 32 226 48t220 16q291 0 435.5 -95.5t144.5 -287.5 q0 -131 -69 -214.5t-204 -117.5q151 -39 229.5 -135.5t78.5 -245.5q0 -222 -170 -337.5t-496 -115.5q-115 0 -230.5 18.5t-228.5 55.5z" />
<glyph unicode="4" horiz-adv-x="1425" d="M92 272v330l598 891h428v-942h213v-279h-213v-272h-364v272h-662zM332 551h422v625z" />
<glyph unicode="5" horiz-adv-x="1425" d="M158 70v303q122 -70 231.5 -105t206.5 -35q140 0 220.5 68.5t80.5 185.5q0 118 -80.5 186t-220.5 68q-83 0 -177 -21.5t-202 -66.5v840h957v-283h-650v-231q44 12 88.5 18.5t92.5 6.5q273 0 425 -136.5t152 -380.5q0 -242 -165.5 -379t-459.5 -137q-127 0 -251.5 24.5 t-247.5 74.5z" />
<glyph unicode="6" horiz-adv-x="1425" d="M127 725q0 370 186.5 581.5t511.5 211.5q103 0 200 -16t192 -48v-276q-95 45 -179 66.5t-164 21.5q-172 0 -268 -95.5t-112 -283.5q66 49 143 73.5t168 24.5q229 0 369.5 -134t140.5 -351q0 -240 -157 -384.5t-421 -144.5q-291 0 -450.5 196.5t-159.5 557.5zM539 475 q0 -131 50.5 -196.5t151.5 -65.5q102 0 152.5 65.5t50.5 196.5t-50.5 196.5t-152.5 65.5q-101 0 -151.5 -65.5t-50.5 -196.5z" />
<glyph unicode="7" horiz-adv-x="1425" d="M137 1210v283h1125v-217l-582 -1276h-375l551 1210h-719z" />
<glyph unicode="8" horiz-adv-x="1425" d="M125 420q0 144 77.5 238.5t229.5 136.5q-136 41 -205 126t-69 212q0 189 141 288t414 99q271 0 412 -98.5t141 -288.5q0 -127 -69.5 -212t-205.5 -126q152 -42 229.5 -136.5t77.5 -238.5q0 -222 -147.5 -335.5t-437.5 -113.5q-291 0 -439.5 113.5t-148.5 335.5zM489 440 q0 -110 58 -168.5t166 -58.5q107 0 164 58.5t57 168.5q0 111 -57 169.5t-164 58.5q-108 0 -166 -59t-58 -169zM522 1094q0 -89 49.5 -137t141.5 -48q90 0 139 48t49 137t-49 136.5t-139 47.5q-92 0 -141.5 -48t-49.5 -136z" />
<glyph unicode="9" horiz-adv-x="1425" d="M106 987q0 241 156.5 386t419.5 145q292 0 452 -197t160 -557q0 -370 -187 -581.5t-513 -211.5q-105 0 -201 15.5t-188 46.5v276q92 -43 176 -64.5t166 -21.5q172 0 268 95.5t113 283.5q-68 -50 -145 -75t-167 -25q-229 0 -369.5 133.5t-140.5 351.5zM477 1014 q0 -131 51 -196.5t152 -65.5t152 65.5t51 196.5q0 130 -51 196t-152 66t-152 -66t-51 -196z" />
<glyph unicode=":" horiz-adv-x="819" d="M229 0v387h361v-387h-361zM229 733v387h361v-387h-361z" />
<glyph unicode=";" horiz-adv-x="819" d="M129 -291l100 373v305h361v-305l-248 -373h-213zM229 733v387h361v-387h-361z" />
<glyph unicode="&#x3c;" d="M217 524v236l1282 463v-250l-964 -332l964 -330v-250z" />
<glyph unicode="=" d="M217 295v237h1282v-237h-1282zM217 752v235h1282v-235h-1282z" />
<glyph unicode="&#x3e;" d="M217 61v250l965 330l-965 332v250l1282 -463v-236z" />
<glyph unicode="?" horiz-adv-x="1188" d="M141 1124v314q121 42 221 62t193 20q244 0 372 -99.5t128 -290.5q0 -98 -39 -175.5t-133 -166.5l-64 -57q-68 -62 -89 -99.5t-21 -82.5v-45h-361v49q0 82 33 145.5t139 161.5l64 58q57 52 83.5 98t26.5 92q0 70 -48 109.5t-134 39.5q-81 0 -175 -33.5t-196 -99.5zM348 0 v356h361v-356h-361z" />
<glyph unicode="@" horiz-adv-x="2048" d="M135 543q0 182 68 347t194 290q126 124 293.5 192t347.5 68q224 0 407 -85.5t306 -246.5q75 -98 113.5 -212.5t38.5 -240.5q0 -271 -163 -421t-460 -150h-39v154q-30 -71 -96.5 -110.5t-155.5 -39.5q-172 0 -279.5 124.5t-107.5 324.5t108 325t279 125q89 0 155.5 -40 t96.5 -111v131h209v-693q124 19 195 119.5t71 257.5q0 100 -29 187.5t-88 160.5q-95 122 -237.5 188t-308.5 66q-116 0 -222 -30.5t-196 -89.5q-148 -98 -230.5 -253.5t-82.5 -336.5q0 -149 53.5 -279.5t154.5 -230.5q100 -98 229.5 -149.5t276.5 -51.5q126 0 252 47 t215 127l107 -162q-125 -97 -272.5 -148.5t-299.5 -51.5q-185 0 -349 65.5t-292 190.5t-195 289.5t-67 353.5zM831 539q0 -123 52.5 -194t142.5 -71q89 0 142 71.5t53 193.5q0 121 -53.5 191.5t-143.5 70.5q-88 0 -140.5 -70.5t-52.5 -191.5z" />
<glyph unicode="A" horiz-adv-x="1585" d="M10 0l553 1493h459l553 -1493h-387l-94 272h-602l-95 -272h-387zM588 549h409l-204 594z" />
<glyph unicode="B" horiz-adv-x="1561" d="M188 0v1493h578q311 0 450.5 -94t139.5 -301q0 -109 -51 -185.5t-148 -113.5q124 -36 192 -133t68 -238q0 -216 -146 -322t-444 -106h-639zM573 262h226q116 0 174.5 49t58.5 148q0 97 -58 145.5t-175 48.5h-226v-391zM573 915h213q91 0 138 40t47 118q0 77 -47 117.5 t-138 40.5h-213v-316z" />
<glyph unicode="C" horiz-adv-x="1503" d="M102 745q0 358 218 566.5t591 208.5q125 0 240 -28t221 -83v-309q-107 73 -211 107t-219 34q-206 0 -324 -132t-118 -364q0 -231 118 -363t324 -132q115 0 219 34t211 107v-309q-106 -55 -221 -83t-240 -28q-373 0 -591 208.5t-218 565.5z" />
<glyph unicode="D" horiz-adv-x="1700" d="M188 0v1493h406q340 0 506.5 -48.5t285.5 -164.5q105 -101 156 -233t51 -299q0 -169 -51 -301.5t-156 -233.5q-120 -116 -288 -164.5t-504 -48.5h-406zM573 291h138q236 0 360.5 117t124.5 340q0 222 -124 338t-361 116h-138v-911z" />
<glyph unicode="E" horiz-adv-x="1399" d="M188 0v1493h1039v-291h-654v-278h615v-291h-615v-342h676v-291h-1061z" />
<glyph unicode="F" horiz-adv-x="1399" d="M188 0v1493h1039v-291h-654v-278h615v-291h-615v-633h-385z" />
<glyph unicode="G" horiz-adv-x="1681" d="M102 745q0 361 222 568t608 207q149 0 285.5 -28t257.5 -83v-309q-125 71 -248.5 106t-247.5 35q-230 0 -354.5 -128.5t-124.5 -367.5q0 -237 120 -366t341 -129q60 0 111.5 7.5t92.5 23.5v290h-235v258h600v-718q-144 -70 -299 -105t-320 -35q-373 0 -591 208.5 t-218 565.5z" />
<glyph unicode="H" horiz-adv-x="1714" d="M188 0v1493h385v-569h568v569h385v-1493h-385v633h-568v-633h-385z" />
<glyph unicode="I" horiz-adv-x="762" d="M188 0v1493h385v-1493h-385z" />
<glyph unicode="J" horiz-adv-x="762" d="M-115 -119h60q120 0 181.5 67t61.5 197v1348h385v-1348q0 -279 -151.5 -417t-458.5 -138h-78v291z" />
<glyph unicode="K" horiz-adv-x="1587" d="M188 0v1493h385v-545l555 545h447l-719 -707l793 -786h-482l-594 588v-588h-385z" />
<glyph unicode="L" horiz-adv-x="1305" d="M188 0v1493h385v-1202h676v-291h-1061z" />
<glyph unicode="M" horiz-adv-x="2038" d="M188 0v1493h490l340 -799l342 799h489v-1493h-364v1092l-344 -805h-244l-344 805v-1092h-365z" />
<glyph unicode="N" horiz-adv-x="1714" d="M188 0v1493h430l543 -1024v1024h365v-1493h-430l-543 1024v-1024h-365z" />
<glyph unicode="O" horiz-adv-x="1741" d="M102 745q0 363 204.5 569t563.5 206q360 0 564 -206t204 -569q0 -362 -204 -568t-564 -206q-359 0 -563.5 206t-204.5 568zM500 745q0 -235 97 -365t273 -130q177 0 274 130t97 365q0 236 -97 366t-274 130q-176 0 -273 -130t-97 -366z" />
<glyph unicode="P" horiz-adv-x="1501" d="M188 0v1493h639q285 0 437.5 -126.5t152.5 -360.5q0 -235 -152.5 -361.5t-437.5 -126.5h-254v-518h-385zM573 797h213q112 0 173 54.5t61 154.5t-61 154t-173 54h-213v-417z" />
<glyph unicode="Q" horiz-adv-x="1741" d="M102 745q0 363 204.5 569t563.5 206q363 0 565.5 -204t202.5 -571q0 -252 -107.5 -434t-309.5 -274l301 -336h-367l-244 272h-30q-369 0 -574 204t-205 568zM500 745q0 -240 95 -367.5t275 -127.5q177 0 274 130t97 365q0 236 -97 366t-274 130q-176 0 -273 -130 t-97 -366z" />
<glyph unicode="R" horiz-adv-x="1577" d="M188 0v1493h588q295 0 432.5 -99t137.5 -313q0 -148 -71.5 -243t-215.5 -140q79 -18 141.5 -81.5t126.5 -192.5l209 -424h-410l-182 371q-55 112 -111.5 153t-150.5 41h-109v-565h-385zM573 831h162q121 0 173.5 45t52.5 148q0 102 -52.5 146t-173.5 44h-162v-383z" />
<glyph unicode="S" horiz-adv-x="1475" d="M147 1057q0 223 144 343t414 120q123 0 253 -18.5t269 -55.5v-316q-123 55 -240 83t-221 28q-138 0 -204 -38t-66 -118q0 -60 44.5 -93.5t161.5 -57.5l164 -33q249 -50 354 -152t105 -290q0 -247 -146.5 -367.5t-447.5 -120.5q-142 0 -285 27t-286 80v325 q143 -76 276.5 -114.5t257.5 -38.5q126 0 193 42t67 120q0 70 -45.5 108t-181.5 68l-149 33q-224 48 -327.5 153t-103.5 283z" />
<glyph unicode="T" horiz-adv-x="1397" d="M10 1202v291h1376v-291h-495v-1202h-385v1202h-496z" />
<glyph unicode="U" horiz-adv-x="1663" d="M188 598v895h385v-895q0 -185 60.5 -264.5t197.5 -79.5q138 0 198.5 79.5t60.5 264.5v895h385v-895q0 -317 -159 -472t-485 -155q-325 0 -484 155t-159 472z" />
<glyph unicode="V" horiz-adv-x="1585" d="M10 1493h387l396 -1102l395 1102h387l-553 -1493h-459z" />
<glyph unicode="W" horiz-adv-x="2259" d="M61 1493h369l258 -1085l256 1085h371l256 -1085l258 1085h366l-352 -1493h-444l-271 1135l-268 -1135h-444z" />
<glyph unicode="X" horiz-adv-x="1579" d="M39 0l518 762l-498 731h402l327 -481l326 481h404l-498 -731l518 -762h-401l-349 510l-346 -510h-403z" />
<glyph unicode="Y" horiz-adv-x="1483" d="M-20 1493h421l340 -532l340 532h422l-569 -864v-629h-385v629z" />
<glyph unicode="Z" horiz-adv-x="1485" d="M92 0v233l801 969h-778v291h1255v-233l-801 -969h824v-291h-1301z" />
<glyph unicode="[" horiz-adv-x="936" d="M176 -270v1826h621v-225h-281v-1376h281v-225h-621z" />
<glyph unicode="\" horiz-adv-x="748" d="M0 1493h221l527 -1683h-222z" />
<glyph unicode="]" horiz-adv-x="936" d="M139 -45h281v1376h-281v225h621v-1826h-621v225z" />
<glyph unicode="^" d="M207 936l528 557h246l528 -557h-241l-410 301l-409 -301h-242z" />
<glyph unicode="_" horiz-adv-x="1024" d="M0 -293h1024v-190h-1024v190z" />
<glyph unicode="`" horiz-adv-x="1024" d="M94 1638h283l282 -376h-196z" />
<glyph unicode="a" horiz-adv-x="1382" d="M88 336q0 197 135.5 289t425.5 92h211v28q0 85 -67 124.5t-209 39.5q-115 0 -214 -23t-184 -69v273q115 28 231 42.5t232 14.5q303 0 437.5 -119.5t134.5 -388.5v-639h-361v166q-72 -102 -162 -148.5t-219 -46.5q-174 0 -282.5 101.5t-108.5 263.5zM449 354 q0 -68 45.5 -106.5t126.5 -38.5q101 0 170 72.5t69 181.5v41h-186q-112 0 -168.5 -38t-56.5 -112z" />
<glyph unicode="b" horiz-adv-x="1466" d="M172 0v1556h358v-600q74 98 164 144.5t207 46.5q207 0 340 -164.5t133 -423.5t-133 -423.5t-340 -164.5q-117 0 -207 46.5t-164 144.5v-162h-358zM530 559q0 -159 61.5 -243.5t176.5 -84.5t175.5 84t60.5 244t-60.5 244t-175.5 84t-176.5 -84.5t-61.5 -243.5z" />
<glyph unicode="c" horiz-adv-x="1214" d="M88 559q0 277 171 432.5t474 155.5q88 0 173.5 -15.5t170.5 -46.5v-292q-73 50 -146.5 74t-152.5 24q-150 0 -233.5 -87.5t-83.5 -244.5t83.5 -244.5t233.5 -87.5q84 0 159.5 25t139.5 74v-293q-84 -31 -170.5 -46.5t-173.5 -15.5q-303 0 -474 155.5t-171 432.5z" />
<glyph unicode="d" horiz-adv-x="1466" d="M92 559q0 259 133 423.5t340 164.5q116 0 205.5 -46.5t163.5 -144.5v600h360v-1556h-360v162q-74 -99 -163 -145t-206 -46q-207 0 -340 164.5t-133 423.5zM463 559q0 -160 60.5 -244t174.5 -84q115 0 175.5 84t60.5 244t-60.5 244t-175.5 84q-114 0 -174.5 -84 t-60.5 -244z" />
<glyph unicode="e" horiz-adv-x="1389" d="M88 559q0 274 165.5 431t455.5 157q264 0 422.5 -159t158.5 -425v-102h-837q13 -126 91 -189t218 -63q113 0 231.5 33.5t243.5 101.5v-276q-127 -48 -254 -72.5t-254 -24.5q-304 0 -472.5 154.5t-168.5 433.5zM457 682h465q0 102 -59.5 164.5t-155.5 62.5 q-104 0 -169 -58.5t-81 -168.5z" />
<glyph unicode="f" horiz-adv-x="891" d="M39 864v256h178v78q0 183 102 270.5t316 87.5h274v-235h-198q-76 0 -106 -27.5t-30 -95.5v-78h306v-256h-306v-864h-358v864h-178z" />
<glyph unicode="g" horiz-adv-x="1466" d="M92 573q0 251 134 411.5t339 160.5q117 0 206 -46t163 -145v166h360v-1007q0 -270 -170.5 -412.5t-494.5 -142.5q-105 0 -203 16t-197 49v279q94 -54 184 -80.5t181 -26.5q176 0 258 77t82 241v77q-74 -98 -163 -144t-206 -46q-205 0 -339 161.5t-134 411.5zM463 573 q0 -154 60 -233.5t175 -79.5q112 0 174 82t62 231q0 150 -62 232t-174 82q-111 0 -173 -82t-62 -232z" />
<glyph unicode="h" horiz-adv-x="1458" d="M172 0v1556h358v-600q81 98 172 144.5t201 46.5q194 0 294.5 -119t100.5 -346v-682h-360v111v409q0 147 -6.5 202t-22.5 81q-21 35 -57 54.5t-82 19.5q-112 0 -176 -86.5t-64 -239.5v-551h-358z" />
<glyph unicode="i" horiz-adv-x="702" d="M172 0v1120h358v-1120h-358zM172 1264v292h358v-292h-358z" />
<glyph unicode="j" horiz-adv-x="702" d="M-68 -207h62q102 0 140 46t38 181v1100h358v-1100q0 -225 -108 -343.5t-313 -118.5h-177v235zM172 1264v292h358v-292h-358z" />
<glyph unicode="k" horiz-adv-x="1362" d="M172 0v1556h358v-847l412 411h416l-547 -514l590 -606h-434l-437 467v-467h-358z" />
<glyph unicode="l" horiz-adv-x="702" d="M172 0v1556h358v-1556h-358z" />
<glyph unicode="m" horiz-adv-x="2134" d="M170 0v1120h360v-164q66 95 151.5 143t188.5 48q116 0 205 -56t135 -157q68 104 161.5 158.5t205.5 54.5q193 0 294 -119t101 -346v-682h-360v584q1 13 1.5 27t0.5 40q0 119 -35 172.5t-113 53.5q-102 0 -157.5 -84t-57.5 -243v-550h-360v584q0 186 -32 239.5t-114 53.5 q-103 0 -159 -84.5t-56 -241.5v-551h-360z" />
<glyph unicode="n" horiz-adv-x="1458" d="M172 0v1120h358v-164q81 98 172 144.5t201 46.5q194 0 294.5 -119t100.5 -346v-682h-360v111v411q0 145 -6.5 200t-22.5 81q-21 35 -57 54.5t-82 19.5q-112 0 -176 -86.5t-64 -239.5v-551h-358z" />
<glyph unicode="o" horiz-adv-x="1407" d="M88 559q0 276 163.5 432t453.5 156q289 0 451.5 -156t162.5 -432t-162.5 -432t-451.5 -156q-290 0 -453.5 156t-163.5 432zM461 559q0 -161 62.5 -246.5t181.5 -85.5q117 0 179 85.5t62 246.5t-62 246.5t-179 85.5q-119 0 -181.5 -85.5t-62.5 -246.5z" />
<glyph unicode="p" horiz-adv-x="1466" d="M172 -426v1546h358v-164q74 98 164 144.5t207 46.5q207 0 340 -164.5t133 -423.5t-133 -423.5t-340 -164.5q-117 0 -207 46.5t-164 144.5v-588h-358zM530 559q0 -159 61.5 -243.5t176.5 -84.5t175.5 84t60.5 244t-60.5 244t-175.5 84t-176.5 -84.5t-61.5 -243.5z" />
<glyph unicode="q" horiz-adv-x="1466" d="M92 559q0 259 133 422.5t340 163.5q117 0 206 -46t163 -145v166h360v-1546h-360v588q-74 -99 -163 -145t-206 -46q-207 0 -340 164.5t-133 423.5zM463 559q0 -160 60.5 -244t174.5 -84q115 0 175.5 84t60.5 244t-60.5 244t-175.5 84q-114 0 -174.5 -84t-60.5 -244z" />
<glyph unicode="r" horiz-adv-x="1010" d="M172 0v1120h358v-184q69 110 158.5 160.5t214.5 50.5q18 0 39 -1.5t61 -6.5l1 -324q-47 22 -93.5 32.5t-93.5 10.5q-138 0 -212.5 -88.5t-74.5 -253.5v-516h-358z" />
<glyph unicode="s" horiz-adv-x="1219" d="M106 797q0 178 122 264t374 86q99 0 208 -15t237 -47v-272q-115 48 -222 72t-202 24q-102 0 -151.5 -25.5t-49.5 -78.5q0 -43 37.5 -66t134.5 -34l63 -9q275 -35 370 -115t95 -251q0 -179 -132 -269t-394 -90q-111 0 -229.5 17.5t-243.5 52.5v272q107 -52 219.5 -78 t228.5 -26q105 0 158 29t53 86q0 48 -36.5 71.5t-145.5 36.5l-63 8q-239 30 -335 111t-96 246z" />
<glyph unicode="t" horiz-adv-x="979" d="M27 864v256h178v318h358v-318h369v-256h-369v-475q0 -78 31 -105.5t123 -27.5h184v-256h-307q-212 0 -300.5 88.5t-88.5 300.5v475h-178z" />
<glyph unicode="u" horiz-adv-x="1458" d="M160 436v684h360v-112q0 -91 -1 -228.5t-1 -183.5q0 -135 7 -194.5t24 -86.5q22 -35 57.5 -54t81.5 -19q112 0 176 86t64 239v553h358v-1120h-358v162q-81 -98 -171.5 -144.5t-199.5 -46.5q-194 0 -295.5 119t-101.5 346z" />
<glyph unicode="v" horiz-adv-x="1335" d="M31 1120h358l279 -774l278 774h359l-441 -1120h-393z" />
<glyph unicode="w" horiz-adv-x="1892" d="M72 1120h348l188 -772l189 772h299l188 -764l189 764h348l-295 -1120h-391l-189 770l-188 -770h-391z" />
<glyph unicode="x" horiz-adv-x="1321" d="M31 0l424 573l-404 547h379l229 -332l232 332h379l-404 -545l424 -575h-379l-252 354l-249 -354h-379z" />
<glyph unicode="y" horiz-adv-x="1335" d="M25 1120h358l301 -760l256 760h358l-471 -1226q-71 -187 -165.5 -261.5t-249.5 -74.5h-207v235h112q91 0 132.5 29t64.5 104l10 31z" />
<glyph unicode="z" horiz-adv-x="1192" d="M92 0v250l590 614h-565v256h977v-250l-590 -614h590v-256h-1002z" />
<glyph unicode="{" horiz-adv-x="1458" d="M256 494v223h61q142 0 196 58t54 208v205q0 193 100 280.5t318 87.5h217v-225h-69q-141 0 -183.5 -43.5t-42.5 -185.5v-166q0 -157 -45 -228t-155 -96q111 -27 155.5 -98t44.5 -227v-166q0 -143 42.5 -186.5t183.5 -43.5h69v-225h-217q-218 0 -318 88t-100 281v192 q0 150 -54 208.5t-196 58.5h-61z" />
<glyph unicode="|" horiz-adv-x="748" d="M260 -483v2048h227v-2048h-227z" />
<glyph unicode="}" horiz-adv-x="1458" d="M256 -109h70q140 0 182.5 43.5t42.5 186.5v166q0 156 45 227t156 98q-111 25 -156 96t-45 228v166q0 142 -42.5 185.5t-182.5 43.5h-70v225h217q218 0 318 -87.5t100 -280.5v-205q0 -150 54 -208t196 -58h61v-223h-61q-142 0 -196 -58.5t-54 -208.5v-192 q0 -193 -100 -281t-318 -88h-217v225z" />
<glyph unicode="~" d="M217 434v244q107 80 196 114.5t185 34.5q107 0 250 -58q15 -6 22 -9t22 -9q155 -61 249 -61q86 0 170.5 37.5t187.5 122.5v-244q-106 -80 -195.5 -114.5t-185.5 -34.5q-107 0 -250 58q-14 6 -22 9q-7 3 -22 9q-155 61 -249 61q-88 0 -174 -38.5t-184 -121.5z" />
<glyph unicode="&#xa1;" horiz-adv-x="934" d="M287 0v573l51 418h258l51 -418v-573h-360zM287 1137v356h360v-356h-360z" />
<glyph unicode="&#xa2;" horiz-adv-x="1425" d="M174 575q0 244 135 389.5t393 180.5v287h162l1 -287q71 -3 144.5 -17.5t151.5 -42.5v-292q-74 48 -145.5 73t-136.5 25h-15v-663q89 1 164.5 26t132.5 72v-293q-83 -30 -156 -46t-131 -16h-10v-284h-162v288q-262 40 -395 191t-133 409zM547 559q0 -109 38.5 -183 t116.5 -116v598q-78 -44 -116.5 -117.5t-38.5 -181.5z" />
<glyph unicode="&#xa3;" horiz-adv-x="1425" d="M125 0v266h227v326h-194v239h194v170q0 271 127 395t402 124q92 0 182.5 -13.5t179.5 -40.5v-286q-70 39 -144 58t-151 19q-118 0 -174.5 -62.5t-56.5 -193.5v-170h373v-239h-373v-326h538v-266h-1130z" />
<glyph unicode="&#xa4;" horiz-adv-x="1303" d="M74 215l207 207q-28 49 -42 102.5t-14 116.5t15 117t45 100l-209 205l153 154l207 -207q48 30 102 44.5t115 14.5q54 0 108 -13.5t111 -41.5l207 207l152 -154l-207 -207q29 -55 43 -110t14 -109q0 -63 -14.5 -115.5t-44.5 -99.5l207 -207l-154 -153l-207 206 q-46 -30 -99 -44.5t-116 -14.5q-58 0 -112 13.5t-107 41.5l-207 -207zM434 641q0 -93 63 -156t156 -63q91 0 155 63.5t64 155.5t-63.5 155.5t-155.5 63.5q-91 0 -155 -63.5t-64 -155.5z" />
<glyph unicode="&#xa5;" horiz-adv-x="1425" d="M25 1493h399l289 -461l288 461h400l-336 -539h293v-192h-406l-49 -86v-66h455v-194h-455v-416h-381v416h-454v194h454v66l-49 86h-405v192h292z" />
<glyph unicode="&#xa6;" horiz-adv-x="748" d="M260 -350v758h227v-758h-227zM260 674v758h227v-758h-227z" />
<glyph unicode="&#xa7;" horiz-adv-x="1024" d="M14 668q0 104 55.5 181t168.5 128q-75 51 -107.5 106.5t-32.5 130.5q0 144 114.5 225t315.5 81q84 0 174 -14.5t183 -43.5v-227q-99 39 -178 58.5t-136 19.5q-75 0 -113 -24.5t-38 -71.5q0 -67 188 -146q26 -11 39 -16q210 -89 289.5 -175.5t79.5 -211.5 q0 -117 -56.5 -196.5t-173.5 -127.5q77 -41 114.5 -97.5t37.5 -129.5q0 -145 -121 -228.5t-334 -83.5q-85 0 -175.5 14.5t-192.5 43.5v237q115 -41 206 -62.5t148 -21.5q65 0 104 25t39 65q0 70 -180 144q-36 14 -55 22q-203 87 -283 176.5t-80 219.5zM299 702 q0 -67 61.5 -116t243.5 -115q65 23 100 62.5t35 91.5q0 67 -69 120t-236 111q-68 -28 -101.5 -66t-33.5 -88z" />
<glyph unicode="&#xa8;" horiz-adv-x="1024" d="M197 1339v246h235v-246h-235zM592 1339v246h235v-246h-235z" />
<glyph unicode="&#xa9;" horiz-adv-x="2048" d="M283 741q0 154 54 285t163 240t240.5 164t283.5 55t283.5 -55t240.5 -164t163 -240t54 -285q0 -152 -54 -282.5t-163 -239.5t-240.5 -164t-283.5 -55t-283.5 55t-240.5 164t-163 239.5t-54 282.5zM434 741q0 -121 43.5 -224.5t130.5 -190.5q86 -86 190.5 -129t225.5 -43 q123 0 226 42.5t190 129.5t130.5 190.5t43.5 224.5q0 122 -43.5 225.5t-130.5 190.5q-88 88 -191.5 131t-224.5 43t-225 -43.5t-191 -130.5t-130.5 -190.5t-43.5 -225.5zM600 741q0 195 127 311.5t338 116.5q69 0 133 -10.5t125 -32.5v-215q-57 37 -112.5 54.5t-112.5 17.5 q-113 0 -176.5 -64t-63.5 -178q0 -115 63 -178t177 -63q64 0 121.5 18t103.5 53v-213q-65 -22 -130.5 -33.5t-127.5 -11.5q-211 0 -338 117t-127 311z" />
<glyph unicode="&#xaa;" horiz-adv-x="1155" d="M158 946q0 141 105 207t331 66h137v20q0 56 -44.5 85.5t-129.5 29.5q-87 0 -170 -17.5t-162 -52.5v180q92 28 176.5 42t159.5 14q224 0 332 -87.5t108 -267.5v-448h-245v127q-55 -76 -125 -112t-164 -36q-145 0 -227 67t-82 183zM176 373v200h813v-200h-813zM406 967 q0 -51 33 -80t91 -29q89 0 146 57t57 144v22h-90q-133 0 -185 -26t-52 -88z" />
<glyph unicode="&#xab;" horiz-adv-x="1323" d="M158 506v186l493 371v-242l-293 -221l293 -221v-242zM637 506v186l493 371v-242l-292 -221l292 -221v-242z" />
<glyph unicode="&#xac;" d="M217 672v237h1282v-622h-235v385h-1047z" />
<glyph unicode="&#xad;" horiz-adv-x="850" d="M111 444v291h628v-291h-628z" />
<glyph unicode="&#xae;" horiz-adv-x="2048" d="M283 741q0 154 54 285t163 240t240.5 164t283.5 55t283.5 -55t240.5 -164t163 -240t54 -285q0 -152 -54 -282.5t-163 -239.5t-240.5 -164t-283.5 -55t-283.5 55t-240.5 164t-163 239.5t-54 282.5zM434 741q0 -121 43.5 -224.5t130.5 -190.5q86 -86 190.5 -129t225.5 -43 q123 0 226 42.5t190 129.5t130.5 190.5t43.5 224.5q0 122 -43.5 225.5t-130.5 190.5q-88 88 -191.5 131t-224.5 43t-225 -43.5t-191 -130.5t-130.5 -190.5t-43.5 -225.5zM719 338v836h285q176 0 263 -59.5t87 -180.5q0 -86 -52.5 -142t-148.5 -73q41 -22 76.5 -62t64.5 -98 l111 -221h-229l-107 213q-38 78 -67 110.5t-58 32.5h-12v-356h-213zM932 829h35q78 0 117.5 26.5t39.5 78.5t-38.5 77t-118.5 25h-35v-207z" />
<glyph unicode="&#xaf;" horiz-adv-x="1024" d="M197 1368v188h630v-188h-630z" />
<glyph unicode="&#xb0;" horiz-adv-x="1024" d="M178 1200q0 141 96.5 237.5t237.5 96.5q66 0 127 -25.5t109 -72.5q47 -48 71.5 -108t24.5 -128q0 -67 -24.5 -127.5t-69.5 -105.5q-48 -48 -110 -73.5t-130 -25.5q-141 0 -236.5 95.5t-95.5 236.5zM340 1200q0 -72 49.5 -121t122.5 -49q72 0 122 49.5t50 120.5 q0 72 -50.5 122t-121.5 50q-72 0 -122 -50t-50 -122z" />
<glyph unicode="&#xb1;" d="M217 0v238h1282v-238h-1282zM217 694v236h522v354h238v-354h522v-236h-522v-354h-238v354h-522z" />
<glyph unicode="&#xb2;" horiz-adv-x="897" d="M109 668v153l313 266q61 53 87 93t26 80q0 50 -36.5 81t-95.5 31q-62 0 -133 -22.5t-155 -69.5v186q87 27 168.5 40.5t156.5 13.5q158 0 248 -64.5t90 -175.5q0 -72 -35.5 -132.5t-136.5 -146.5l-194 -165h370v-168h-673z" />
<glyph unicode="&#xb3;" horiz-adv-x="897" d="M90 698v174q66 -36 130 -54.5t124 -18.5q95 0 147 32t52 91q0 64 -53.5 94.5t-167.5 30.5h-74v137h84q98 0 143 23.5t45 74.5q0 45 -39 67.5t-119 22.5q-52 0 -113.5 -13t-131.5 -40v166q65 17 140.5 26t162.5 9q167 0 255.5 -56t88.5 -161q0 -69 -45 -117t-127 -66 q92 -18 143 -73t51 -136q0 -129 -99 -193.5t-300 -64.5q-81 0 -155 11.5t-142 33.5z" />
<glyph unicode="&#xb4;" horiz-adv-x="1024" d="M365 1262l282 376h283l-369 -376h-196z" />
<glyph unicode="&#xb5;" horiz-adv-x="1507" d="M174 -428v1548h361v-651q0 -116 50 -172.5t152 -56.5q103 0 153 56.5t50 172.5v651h360v-749q0 -71 16.5 -99t55.5 -28q18 0 34.5 5t35.5 17v-250q-53 -23 -99.5 -34t-91.5 -11q-89 0 -145.5 37.5t-91.5 120.5q-47 -79 -114.5 -118.5t-156.5 -39.5q-74 0 -126 23.5 t-82 71.5v-494h-361z" />
<glyph unicode="&#xb6;" horiz-adv-x="1303" d="M129 1071q0 190 130 306t345 116h520v-1690h-190v1543h-189v-1543h-190v846q-204 25 -315 134.5t-111 287.5z" />
<glyph unicode="&#xb7;" horiz-adv-x="778" d="M209 518v387h360v-387h-360z" />
<glyph unicode="&#xb8;" horiz-adv-x="1024" d="M262 -223q50 -16 91.5 -23.5t74.5 -7.5q58 0 90.5 23t32.5 63q0 26 -21.5 67t-66.5 101h139q58 -62 85.5 -115t27.5 -100q0 -95 -61.5 -140.5t-188.5 -45.5q-48 0 -99 6.5t-103 19.5z" />
<glyph unicode="&#xb9;" horiz-adv-x="897" d="M123 1294v160l229 49h226v-678h204v-157h-641v157h207v521z" />
<glyph unicode="&#xba;" horiz-adv-x="1155" d="M117 1108q0 190 123.5 301t337.5 111q213 0 336.5 -111t123.5 -301t-123 -300t-337 -110t-337.5 110t-123.5 300zM166 373v200h823v-200h-823zM403 1108q0 -116 45.5 -178t129.5 -62q83 0 128.5 62t45.5 178t-45.5 179t-128.5 63q-84 0 -129.5 -63t-45.5 -179z" />
<glyph unicode="&#xbb;" horiz-adv-x="1323" d="M193 137v242l292 221l-292 221v242l491 -371v-186zM672 137v242l293 221l-293 221v242l493 -371v-186z" />
<glyph unicode="&#xbc;" horiz-adv-x="2120" d="M100 1294v160l229 49h226v-678h204v-157h-641v157h207v521zM510 -29l934 1549h224l-934 -1549h-224zM1202 162v168l373 505h248v-518h137v-155h-137v-162h-230v162h-391zM1354 317h239v323z" />
<glyph unicode="&#xbd;" horiz-adv-x="2120" d="M100 1294v160l229 49h226v-678h204v-157h-641v157h207v521zM510 -29l934 1549h224l-934 -1549h-224zM1348 0v153l313 266q61 53 87 93t26 80q0 50 -36.5 81t-95.5 31q-62 0 -133 -22.5t-155 -69.5v186q87 27 168.5 40.5t156.5 13.5q158 0 248 -64.5t90 -175.5 q0 -72 -35.5 -132.5t-136.5 -146.5l-194 -165h370v-168h-673z" />
<glyph unicode="&#xbe;" horiz-adv-x="2120" d="M104 698v174q66 -36 130 -54.5t124 -18.5q95 0 147 32t52 91q0 64 -53.5 94.5t-167.5 30.5h-74v137h84q98 0 143 23.5t45 74.5q0 45 -39 67.5t-119 22.5q-52 0 -113.5 -13t-131.5 -40v166q65 17 140.5 26t162.5 9q167 0 255.5 -56t88.5 -161q0 -69 -45 -117t-127 -66 q92 -18 143 -73t51 -136q0 -129 -99 -193.5t-300 -64.5q-81 0 -155 11.5t-142 33.5zM510 -29l934 1549h224l-934 -1549h-224zM1202 162v168l373 505h248v-518h137v-155h-137v-162h-230v162h-391zM1354 317h239v323z" />
<glyph unicode="&#xbf;" horiz-adv-x="1188" d="M141 360q0 99 39 176.5t133 165.5l64 58q68 61 89 99t21 83v45h361v-49q0 -81 -32.5 -144t-141.5 -163l-64 -58q-56 -51 -82 -97t-26 -93q0 -70 48 -110t134 -40q81 0 175.5 34t195.5 100v-314q-119 -42 -220.5 -62t-193.5 -20q-244 0 -372 99.5t-128 289.5zM487 1137 v356h361v-356h-361z" />
<glyph unicode="&#xc0;" horiz-adv-x="1585" d="M10 0l553 1493h459l553 -1493h-387l-94 272h-602l-95 -272h-387zM434 1899h283l198 -264h-196zM588 549h409l-204 594z" />
<glyph unicode="&#xc1;" horiz-adv-x="1585" d="M10 0l553 1493h459l553 -1493h-387l-94 272h-602l-95 -272h-387zM588 549h409l-204 594zM621 1635l198 264h283l-285 -264h-196z" />
<glyph unicode="&#xc2;" horiz-adv-x="1585" d="M10 0l553 1493h459l553 -1493h-387l-94 272h-602l-95 -272h-387zM415 1635l223 264h308l223 -264h-178l-199 161l-199 -161h-178zM588 549h409l-204 594z" />
<glyph unicode="&#xc3;" horiz-adv-x="1585" d="M10 0l553 1493h459l553 -1493h-387l-94 272h-602l-95 -272h-387zM444 1641q0 5 1 15t1 15q0 106 53.5 171t140.5 65q37 0 74 -12.5t76 -36.5l59 -39q21 -14 40.5 -21.5t35.5 -7.5q37 0 56.5 30t19.5 87h139q0 -6 -1 -16t-1 -15q0 -106 -53.5 -170.5t-140.5 -64.5 q-38 0 -73 11t-77 38l-56 35q-3 2 -10 6q-45 26 -73 26q-32 0 -52 -30t-20 -80v-6h-139zM588 549h409l-204 594z" />
<glyph unicode="&#xc4;" horiz-adv-x="1585" d="M10 0l553 1493h459l553 -1493h-387l-94 272h-602l-95 -272h-387zM471 1653v246h235v-246h-235zM588 549h409l-204 594zM866 1653v246h235v-246h-235z" />
<glyph unicode="&#xc5;" horiz-adv-x="1585" d="M10 0l543 1464q-23 34 -34 71.5t-11 80.5q0 117 83.5 201t201.5 84q116 0 200 -84t84 -201q0 -47 -11 -85t-34 -67l543 -1464h-387l-94 272h-602l-95 -272h-387zM588 549h409l-204 594zM662 1616q0 -54 38.5 -92.5t92.5 -38.5t92.5 38.5t38.5 92.5t-39 92.5t-92 38.5 q-54 0 -92.5 -38.5t-38.5 -92.5z" />
<glyph unicode="&#xc6;" horiz-adv-x="2222" d="M0 0l625 1493h1425v-291h-653v-278h614v-291h-614v-342h676v-291h-1061v350h-494l-147 -350h-371zM635 627h377v610h-121z" />
<glyph unicode="&#xc7;" horiz-adv-x="1503" d="M102 745q0 358 218 566.5t591 208.5q125 0 240 -28t221 -83v-309q-107 73 -211 107t-219 34q-206 0 -324 -132t-118 -364q0 -231 118 -363t324 -132q115 0 219 34t211 107v-309q-106 -55 -221 -83t-240 -28q-373 0 -591 208.5t-218 565.5zM633 -223q50 -16 91.5 -23.5 t74.5 -7.5q58 0 90.5 23t32.5 63q0 26 -21.5 67t-66.5 101h139q58 -62 85.5 -115t27.5 -100q0 -95 -61.5 -140.5t-188.5 -45.5q-48 0 -99 6.5t-103 19.5z" />
<glyph unicode="&#xc8;" horiz-adv-x="1399" d="M188 0v1493h1039v-291h-654v-278h615v-291h-615v-342h676v-291h-1061zM358 1899h283l198 -264h-196z" />
<glyph unicode="&#xc9;" horiz-adv-x="1399" d="M188 0v1493h1039v-291h-654v-278h615v-291h-615v-342h676v-291h-1061zM545 1635l198 264h283l-285 -264h-196z" />
<glyph unicode="&#xca;" horiz-adv-x="1399" d="M188 0v1493h1039v-291h-654v-278h615v-291h-615v-342h676v-291h-1061zM315 1635l223 264h308l223 -264h-178l-199 161l-199 -161h-178z" />
<glyph unicode="&#xcb;" horiz-adv-x="1399" d="M188 0v1493h1039v-291h-654v-278h615v-291h-615v-342h676v-291h-1061zM377 1653v246h235v-246h-235zM772 1653v246h235v-246h-235z" />
<glyph unicode="&#xcc;" horiz-adv-x="762" d="M22 1899h283l198 -264h-196zM188 0v1493h385v-1493h-385z" />
<glyph unicode="&#xcd;" horiz-adv-x="762" d="M188 0v1493h385v-1493h-385zM209 1635l198 264h283l-285 -264h-196z" />
<glyph unicode="&#xce;" horiz-adv-x="762" d="M3 1635l223 264h308l223 -264h-178l-199 161l-199 -161h-178zM188 0v1493h385v-1493h-385z" />
<glyph unicode="&#xcf;" horiz-adv-x="762" d="M65 1653v246h235v-246h-235zM188 0v1493h385v-1493h-385zM460 1653v246h235v-246h-235z" />
<glyph unicode="&#xd0;" d="M33 621v260h174v612h405q341 0 507 -48.5t286 -164.5q104 -101 155.5 -233t51.5 -299q0 -169 -51.5 -301.5t-155.5 -233.5q-121 -116 -289 -164.5t-504 -48.5h-405v621h-174zM592 291h137q236 0 360.5 117t124.5 340q0 222 -124 338t-361 116h-137v-321h235v-260h-235 v-330z" />
<glyph unicode="&#xd1;" horiz-adv-x="1714" d="M188 0v1493h430l543 -1024v1024h365v-1493h-430l-543 1024v-1024h-365zM473 1635q0 5 1 15t1 15q0 106 53.5 171t140.5 65q37 0 74 -12.5t76 -36.5l59 -39q21 -14 40.5 -21.5t35.5 -7.5q37 0 56.5 30t19.5 87h139q0 -6 -1 -16t-1 -15q0 -106 -53.5 -170.5t-140.5 -64.5 q-38 0 -73 11t-77 38l-56 35q-3 2 -10 6q-45 26 -73 26q-32 0 -52 -30t-20 -80v-6h-139z" />
<glyph unicode="&#xd2;" horiz-adv-x="1741" d="M102 745q0 363 204.5 569t563.5 206q360 0 564 -206t204 -569q0 -362 -204 -568t-564 -206q-359 0 -563.5 206t-204.5 568zM500 745q0 -235 97 -365t273 -130q177 0 274 130t97 365q0 236 -97 366t-274 130q-176 0 -273 -130t-97 -366zM512 1899h283l198 -264h-196z" />
<glyph unicode="&#xd3;" horiz-adv-x="1741" d="M102 745q0 363 204.5 569t563.5 206q360 0 564 -206t204 -569q0 -362 -204 -568t-564 -206q-359 0 -563.5 206t-204.5 568zM500 745q0 -235 97 -365t273 -130q177 0 274 130t97 365q0 236 -97 366t-274 130q-176 0 -273 -130t-97 -366zM699 1635l198 264h283l-285 -264 h-196z" />
<glyph unicode="&#xd4;" horiz-adv-x="1741" d="M102 745q0 363 204.5 569t563.5 206q360 0 564 -206t204 -569q0 -362 -204 -568t-564 -206q-359 0 -563.5 206t-204.5 568zM469 1635l223 264h308l223 -264h-178l-199 161l-199 -161h-178zM500 745q0 -235 97 -365t273 -130q177 0 274 130t97 365q0 236 -97 366t-274 130 q-176 0 -273 -130t-97 -366z" />
<glyph unicode="&#xd5;" horiz-adv-x="1741" d="M102 745q0 363 204.5 569t563.5 206q360 0 564 -206t204 -569q0 -362 -204 -568t-564 -206q-359 0 -563.5 206t-204.5 568zM500 745q0 -235 97 -365t273 -130q177 0 274 130t97 365q0 236 -97 366t-274 130q-176 0 -273 -130t-97 -366zM523 1635q0 5 1 15t1 15 q0 106 53.5 171t140.5 65q37 0 74 -12.5t76 -36.5l59 -39q21 -14 40.5 -21.5t35.5 -7.5q37 0 56.5 30t19.5 87h139q0 -6 -1 -16t-1 -15q0 -106 -53.5 -170.5t-140.5 -64.5q-38 0 -73 11t-77 38l-56 35q-3 2 -10 6q-45 26 -73 26q-32 0 -52 -30t-20 -80v-6h-139z" />
<glyph unicode="&#xd6;" horiz-adv-x="1741" d="M102 745q0 363 204.5 569t563.5 206q360 0 564 -206t204 -569q0 -362 -204 -568t-564 -206q-359 0 -563.5 206t-204.5 568zM500 745q0 -235 97 -365t273 -130q177 0 274 130t97 365q0 236 -97 366t-274 130q-176 0 -273 -130t-97 -366zM555 1653v246h235v-246h-235z M950 1653v246h235v-246h-235z" />
<glyph unicode="&#xd7;" d="M256 209l434 432l-434 434l168 168l434 -434l434 434l168 -168l-434 -434l434 -432l-168 -168l-434 432l-434 -432z" />
<glyph unicode="&#xd8;" horiz-adv-x="1741" d="M45 39l205 205q-74 100 -111 225t-37 276q0 363 204.5 569t563.5 206q154 0 278 -37.5t226 -114.5l199 199l113 -115l-201 -199q77 -99 115 -226.5t38 -281.5q0 -362 -204 -568t-564 -206q-153 0 -280.5 39.5t-229.5 118.5l-202 -203zM500 745q0 -64 7 -120.5t21 -102.5 l605 604q-51 58 -116 86.5t-147 28.5q-176 0 -273 -130t-97 -366zM604 371q52 -62 117.5 -91.5t148.5 -29.5q177 0 274 130t97 365q0 68 -7.5 126.5t-23.5 107.5z" />
<glyph unicode="&#xd9;" horiz-adv-x="1663" d="M188 598v895h385v-895q0 -185 60.5 -264.5t197.5 -79.5q138 0 198.5 79.5t60.5 264.5v895h385v-895q0 -317 -159 -472t-485 -155q-325 0 -484 155t-159 472zM473 1899h283l198 -264h-196z" />
<glyph unicode="&#xda;" horiz-adv-x="1663" d="M188 598v895h385v-895q0 -185 60.5 -264.5t197.5 -79.5q138 0 198.5 79.5t60.5 264.5v895h385v-895q0 -317 -159 -472t-485 -155q-325 0 -484 155t-159 472zM660 1635l198 264h283l-285 -264h-196z" />
<glyph unicode="&#xdb;" horiz-adv-x="1663" d="M188 598v895h385v-895q0 -185 60.5 -264.5t197.5 -79.5q138 0 198.5 79.5t60.5 264.5v895h385v-895q0 -317 -159 -472t-485 -155q-325 0 -484 155t-159 472zM455 1635l223 264h308l223 -264h-178l-199 161l-199 -161h-178z" />
<glyph unicode="&#xdc;" horiz-adv-x="1663" d="M188 598v895h385v-895q0 -185 60.5 -264.5t197.5 -79.5q138 0 198.5 79.5t60.5 264.5v895h385v-895q0 -317 -159 -472t-485 -155q-325 0 -484 155t-159 472zM517 1653v246h235v-246h-235zM912 1653v246h235v-246h-235z" />
<glyph unicode="&#xdd;" horiz-adv-x="1483" d="M-20 1493h421l340 -532l340 532h422l-569 -864v-629h-385v629zM570 1635l198 264h283l-285 -264h-196z" />
<glyph unicode="&#xde;" horiz-adv-x="1511" d="M188 0v1493h385v-260h254q285 0 437.5 -126.5t152.5 -361.5q0 -234 -152.5 -360.5t-437.5 -126.5h-254v-258h-385zM573 537h213q112 0 173 54.5t61 153.5q0 101 -61 156t-173 55h-213v-419z" />
<glyph unicode="&#xdf;" horiz-adv-x="1473" d="M172 0v1114q0 222 135 332t408 110q262 0 396 -112t134 -330v-71q-151 -10 -223 -49t-72 -113q0 -37 24.5 -65.5t117.5 -80.5l69 -37q116 -64 169.5 -148.5t53.5 -201.5q0 -189 -114.5 -283t-345.5 -94q-65 0 -134 12.5t-143 36.5v244q56 -27 113.5 -41t111.5 -14 q72 0 116 36t44 93q0 47 -27.5 81t-125.5 89l-70 39q-88 49 -130 116.5t-42 157.5q0 116 69.5 195t214.5 129q-1 85 -49 129.5t-139 44.5q-101 0 -152 -55t-51 -164v-1100h-358z" />
<glyph unicode="&#xe0;" horiz-adv-x="1382" d="M88 336q0 197 135.5 289t425.5 92h211v28q0 85 -67 124.5t-209 39.5q-115 0 -214 -23t-184 -69v273q115 28 231 42.5t232 14.5q303 0 437.5 -119.5t134.5 -388.5v-639h-361v166q-72 -102 -162 -148.5t-219 -46.5q-174 0 -282.5 101.5t-108.5 263.5zM280 1638h283 l282 -376h-196zM449 354q0 -68 45.5 -106.5t126.5 -38.5q101 0 170 72.5t69 181.5v41h-186q-112 0 -168.5 -38t-56.5 -112z" />
<glyph unicode="&#xe1;" horiz-adv-x="1382" d="M88 336q0 197 135.5 289t425.5 92h211v28q0 85 -67 124.5t-209 39.5q-115 0 -214 -23t-184 -69v273q115 28 231 42.5t232 14.5q303 0 437.5 -119.5t134.5 -388.5v-639h-361v166q-72 -102 -162 -148.5t-219 -46.5q-174 0 -282.5 101.5t-108.5 263.5zM449 354 q0 -68 45.5 -106.5t126.5 -38.5q101 0 170 72.5t69 181.5v41h-186q-112 0 -168.5 -38t-56.5 -112zM551 1262l282 376h283l-369 -376h-196z" />
<glyph unicode="&#xe2;" horiz-adv-x="1382" d="M88 336q0 197 135.5 289t425.5 92h211v28q0 85 -67 124.5t-209 39.5q-115 0 -214 -23t-184 -69v273q115 28 231 42.5t232 14.5q303 0 437.5 -119.5t134.5 -388.5v-639h-361v166q-72 -102 -162 -148.5t-219 -46.5q-174 0 -282.5 101.5t-108.5 263.5zM321 1262l256 376h242 l256 -376h-178l-199 225l-199 -225h-178zM449 354q0 -68 45.5 -106.5t126.5 -38.5q101 0 170 72.5t69 181.5v41h-186q-112 0 -168.5 -38t-56.5 -112z" />
<glyph unicode="&#xe3;" horiz-adv-x="1382" d="M88 336q0 197 135.5 289t425.5 92h211v28q0 85 -67 124.5t-209 39.5q-115 0 -214 -23t-184 -69v273q115 28 231 42.5t232 14.5q303 0 437.5 -119.5t134.5 -388.5v-639h-361v166q-72 -102 -162 -148.5t-219 -46.5q-174 0 -282.5 101.5t-108.5 263.5zM350 1309 q0 136 51.5 210t144.5 74q36 0 72.5 -13.5t77.5 -43.5l61 -43q22 -15 40.5 -23t33.5 -8q36 0 56 32t20 89v8h139q0 -136 -51.5 -210t-144.5 -74q-36 0 -69.5 12t-80.5 45l-55 37q-4 2 -10 6q-47 31 -72 31q-36 0 -55 -31t-19 -90v-8h-139zM449 354q0 -68 45.5 -106.5 t126.5 -38.5q101 0 170 72.5t69 181.5v41h-186q-112 0 -168.5 -38t-56.5 -112z" />
<glyph unicode="&#xe4;" horiz-adv-x="1382" d="M88 336q0 197 135.5 289t425.5 92h211v28q0 85 -67 124.5t-209 39.5q-115 0 -214 -23t-184 -69v273q115 28 231 42.5t232 14.5q303 0 437.5 -119.5t134.5 -388.5v-639h-361v166q-72 -102 -162 -148.5t-219 -46.5q-174 0 -282.5 101.5t-108.5 263.5zM383 1339v246h235 v-246h-235zM449 354q0 -68 45.5 -106.5t126.5 -38.5q101 0 170 72.5t69 181.5v41h-186q-112 0 -168.5 -38t-56.5 -112zM778 1339v246h235v-246h-235z" />
<glyph unicode="&#xe5;" horiz-adv-x="1382" d="M88 336q0 197 135.5 289t425.5 92h211v28q0 85 -67 124.5t-209 39.5q-115 0 -214 -23t-184 -69v273q115 28 231 42.5t232 14.5q303 0 437.5 -119.5t134.5 -388.5v-639h-361v166q-72 -102 -162 -148.5t-219 -46.5q-174 0 -282.5 101.5t-108.5 263.5zM413 1534 q0 118 83.5 201.5t201.5 83.5t201.5 -83.5t83.5 -201.5t-83.5 -201.5t-201.5 -83.5t-201.5 83.5t-83.5 201.5zM449 354q0 -68 45.5 -106.5t126.5 -38.5q101 0 170 72.5t69 181.5v41h-186q-112 0 -168.5 -38t-56.5 -112zM567 1534q0 -55 38.5 -93t92.5 -38q55 0 93 38.5 t38 92.5t-38.5 92.5t-92.5 38.5q-55 0 -93 -38.5t-38 -92.5z" />
<glyph unicode="&#xe6;" horiz-adv-x="2146" d="M88 336q0 197 135.5 289t425.5 92h211v28q0 85 -67 124.5t-209 39.5q-115 0 -214 -23t-184 -69v273q119 28 230.5 42.5t208.5 14.5q150 0 258.5 -38.5t179.5 -117.5q77 77 179 116.5t224 39.5q265 0 423.5 -159t158.5 -425v-102h-838q14 -126 91.5 -189t218.5 -63 q113 0 231.5 33.5t243.5 101.5v-276q-127 -48 -254.5 -72.5t-253.5 -24.5q-179 0 -311.5 53.5t-204.5 153.5q-101 -107 -212.5 -157t-250.5 -50q-194 0 -307 98.5t-113 266.5zM449 354q0 -68 45.5 -106.5t126.5 -38.5q101 0 170 72.5t69 181.5v41h-186q-112 0 -168.5 -38 t-56.5 -112zM1217 682h462q0 102 -59.5 164.5t-155.5 62.5q-103 0 -167 -58.5t-80 -168.5z" />
<glyph unicode="&#xe7;" horiz-adv-x="1214" d="M88 559q0 277 171 432.5t474 155.5q88 0 173.5 -15.5t170.5 -46.5v-292q-73 50 -146.5 74t-152.5 24q-150 0 -233.5 -87.5t-83.5 -244.5t83.5 -244.5t233.5 -87.5q84 0 159.5 25t139.5 74v-293q-84 -31 -170.5 -46.5t-173.5 -15.5q-303 0 -474 155.5t-171 432.5z M446 -223q50 -16 91.5 -23.5t74.5 -7.5q58 0 90.5 23t32.5 63q0 26 -21.5 67t-66.5 101h139q58 -62 85.5 -115t27.5 -100q0 -95 -61.5 -140.5t-188.5 -45.5q-48 0 -99 6.5t-103 19.5z" />
<glyph unicode="&#xe8;" horiz-adv-x="1389" d="M88 559q0 274 165.5 431t455.5 157q264 0 422.5 -159t158.5 -425v-102h-837q13 -126 91 -189t218 -63q113 0 231.5 33.5t243.5 101.5v-276q-127 -48 -254 -72.5t-254 -24.5q-304 0 -472.5 154.5t-168.5 433.5zM311 1638h283l282 -376h-196zM457 682h465 q0 102 -59.5 164.5t-155.5 62.5q-104 0 -169 -58.5t-81 -168.5z" />
<glyph unicode="&#xe9;" horiz-adv-x="1389" d="M88 559q0 274 165.5 431t455.5 157q264 0 422.5 -159t158.5 -425v-102h-837q13 -126 91 -189t218 -63q113 0 231.5 33.5t243.5 101.5v-276q-127 -48 -254 -72.5t-254 -24.5q-304 0 -472.5 154.5t-168.5 433.5zM457 682h465q0 102 -59.5 164.5t-155.5 62.5 q-104 0 -169 -58.5t-81 -168.5zM582 1262l282 376h283l-369 -376h-196z" />
<glyph unicode="&#xea;" horiz-adv-x="1389" d="M88 559q0 274 165.5 431t455.5 157q264 0 422.5 -159t158.5 -425v-102h-837q13 -126 91 -189t218 -63q113 0 231.5 33.5t243.5 101.5v-276q-127 -48 -254 -72.5t-254 -24.5q-304 0 -472.5 154.5t-168.5 433.5zM352 1262l256 376h242l256 -376h-178l-199 225l-199 -225 h-178zM457 682h465q0 102 -59.5 164.5t-155.5 62.5q-104 0 -169 -58.5t-81 -168.5z" />
<glyph unicode="&#xeb;" horiz-adv-x="1389" d="M88 559q0 274 165.5 431t455.5 157q264 0 422.5 -159t158.5 -425v-102h-837q13 -126 91 -189t218 -63q113 0 231.5 33.5t243.5 101.5v-276q-127 -48 -254 -72.5t-254 -24.5q-304 0 -472.5 154.5t-168.5 433.5zM414 1339v246h235v-246h-235zM457 682h465 q0 102 -59.5 164.5t-155.5 62.5q-104 0 -169 -58.5t-81 -168.5zM809 1339v246h235v-246h-235z" />
<glyph unicode="&#xec;" horiz-adv-x="702" d="M-43 1638h283l282 -376h-196zM172 0v1120h358v-1120h-358z" />
<glyph unicode="&#xed;" horiz-adv-x="702" d="M172 0v1120h358v-1120h-358zM228 1262l282 376h283l-369 -376h-196z" />
<glyph unicode="&#xee;" horiz-adv-x="702" d="M-27 1262l256 376h242l256 -376h-178l-199 225l-199 -225h-178zM172 0v1120h358v-1120h-358z" />
<glyph unicode="&#xef;" horiz-adv-x="702" d="M35 1339v246h235v-246h-235zM172 0v1120h358v-1120h-358zM430 1339v246h235v-246h-235z" />
<glyph unicode="&#xf0;" horiz-adv-x="1407" d="M88 559q0 231 150.5 363.5t414.5 132.5q46 0 85 -6.5t75 -20.5l-190 219l-373 -119l-37 129l307 97l-188 202h352l111 -116l376 114l35 -129l-315 -96l205 -229q117 -136 170 -264.5t53 -276.5q0 -276 -162.5 -432t-451.5 -156q-290 0 -453.5 156t-163.5 432zM461 543 q0 -148 65 -232t179 -84q117 0 179 85.5t62 246.5q0 45 -6.5 91t-19.5 93q-55 27 -109 40.5t-106 13.5q-117 0 -180.5 -66.5t-63.5 -187.5z" />
<glyph unicode="&#xf1;" horiz-adv-x="1458" d="M172 0v1120h358v-164q81 98 172 144.5t201 46.5q194 0 294.5 -119t100.5 -346v-682h-360v111v411q0 145 -6.5 200t-22.5 81q-21 35 -57 54.5t-82 19.5q-112 0 -176 -86.5t-64 -239.5v-551h-358zM406 1309q0 136 51.5 210t144.5 74q36 0 72.5 -13.5t77.5 -43.5l61 -43 q22 -15 40.5 -23t33.5 -8q36 0 56 32t20 89v8h139q0 -136 -51.5 -210t-144.5 -74q-36 0 -69.5 12t-80.5 45l-55 37q-4 2 -10 6q-47 31 -72 31q-36 0 -55 -31t-19 -90v-8h-139z" />
<glyph unicode="&#xf2;" horiz-adv-x="1407" d="M88 559q0 276 163.5 432t453.5 156q289 0 451.5 -156t162.5 -432t-162.5 -432t-451.5 -156q-290 0 -453.5 156t-163.5 432zM309 1638h283l282 -376h-196zM461 559q0 -161 62.5 -246.5t181.5 -85.5q117 0 179 85.5t62 246.5t-62 246.5t-179 85.5q-119 0 -181.5 -85.5 t-62.5 -246.5z" />
<glyph unicode="&#xf3;" horiz-adv-x="1407" d="M88 559q0 276 163.5 432t453.5 156q289 0 451.5 -156t162.5 -432t-162.5 -432t-451.5 -156q-290 0 -453.5 156t-163.5 432zM461 559q0 -161 62.5 -246.5t181.5 -85.5q117 0 179 85.5t62 246.5t-62 246.5t-179 85.5q-119 0 -181.5 -85.5t-62.5 -246.5zM580 1262l282 376 h283l-369 -376h-196z" />
<glyph unicode="&#xf4;" horiz-adv-x="1407" d="M88 559q0 276 163.5 432t453.5 156q289 0 451.5 -156t162.5 -432t-162.5 -432t-451.5 -156q-290 0 -453.5 156t-163.5 432zM326 1262l256 376h242l256 -376h-178l-199 225l-199 -225h-178zM461 559q0 -161 62.5 -246.5t181.5 -85.5q117 0 179 85.5t62 246.5t-62 246.5 t-179 85.5q-119 0 -181.5 -85.5t-62.5 -246.5z" />
<glyph unicode="&#xf5;" horiz-adv-x="1407" d="M88 559q0 276 163.5 432t453.5 156q289 0 451.5 -156t162.5 -432t-162.5 -432t-451.5 -156q-290 0 -453.5 156t-163.5 432zM354 1309q0 136 51.5 210t144.5 74q36 0 72.5 -13.5t77.5 -43.5l61 -43q22 -15 40.5 -23t33.5 -8q36 0 56 32t20 89v8h139q0 -136 -51.5 -210 t-144.5 -74q-36 0 -69.5 12t-80.5 45l-55 37q-4 2 -10 6q-47 31 -72 31q-36 0 -55 -31t-19 -90v-8h-139zM461 559q0 -161 62.5 -246.5t181.5 -85.5q117 0 179 85.5t62 246.5t-62 246.5t-179 85.5q-119 0 -181.5 -85.5t-62.5 -246.5z" />
<glyph unicode="&#xf6;" horiz-adv-x="1407" d="M88 559q0 276 163.5 432t453.5 156q289 0 451.5 -156t162.5 -432t-162.5 -432t-451.5 -156q-290 0 -453.5 156t-163.5 432zM387 1339v246h235v-246h-235zM461 559q0 -161 62.5 -246.5t181.5 -85.5q117 0 179 85.5t62 246.5t-62 246.5t-179 85.5q-119 0 -181.5 -85.5 t-62.5 -246.5zM782 1339v246h235v-246h-235z" />
<glyph unicode="&#xf7;" d="M217 524v236h1282v-236h-1282zM705 86v309h307v-309h-307zM705 889v309h307v-309h-307z" />
<glyph unicode="&#xf8;" horiz-adv-x="1407" d="M78 0l145 158q-67 78 -101 178t-34 223q0 276 163.5 432t453.5 156q106 0 195.5 -22t164.5 -66l147 158l109 -101l-141 -149q70 -80 104.5 -181t34.5 -227q0 -276 -162.5 -432t-451.5 -156q-108 0 -199 22.5t-168 67.5l-148 -155zM461 559q0 -41 3.5 -73.5t10.5 -59.5 l381 410q-29 28 -66.5 41.5t-84.5 13.5q-119 0 -181.5 -85.5t-62.5 -246.5zM547 287q31 -30 70.5 -45t87.5 -15q117 0 179 85.5t62 246.5q0 43 -3.5 76.5t-10.5 62.5z" />
<glyph unicode="&#xf9;" horiz-adv-x="1458" d="M160 436v684h360v-112q0 -91 -1 -228.5t-1 -183.5q0 -135 7 -194.5t24 -86.5q22 -35 57.5 -54t81.5 -19q112 0 176 86t64 239v553h358v-1120h-358v162q-81 -98 -171.5 -144.5t-199.5 -46.5q-194 0 -295.5 119t-101.5 346zM336 1638h283l282 -376h-196z" />
<glyph unicode="&#xfa;" horiz-adv-x="1458" d="M160 436v684h360v-112q0 -91 -1 -228.5t-1 -183.5q0 -135 7 -194.5t24 -86.5q22 -35 57.5 -54t81.5 -19q112 0 176 86t64 239v553h358v-1120h-358v162q-81 -98 -171.5 -144.5t-199.5 -46.5q-194 0 -295.5 119t-101.5 346zM607 1262l282 376h283l-369 -376h-196z" />
<glyph unicode="&#xfb;" horiz-adv-x="1458" d="M160 436v684h360v-112q0 -91 -1 -228.5t-1 -183.5q0 -135 7 -194.5t24 -86.5q22 -35 57.5 -54t81.5 -19q112 0 176 86t64 239v553h358v-1120h-358v162q-81 -98 -171.5 -144.5t-199.5 -46.5q-194 0 -295.5 119t-101.5 346zM347 1262l256 376h242l256 -376h-178l-199 225 l-199 -225h-178z" />
<glyph unicode="&#xfc;" horiz-adv-x="1458" d="M160 436v684h360v-112q0 -91 -1 -228.5t-1 -183.5q0 -135 7 -194.5t24 -86.5q22 -35 57.5 -54t81.5 -19q112 0 176 86t64 239v553h358v-1120h-358v162q-81 -98 -171.5 -144.5t-199.5 -46.5q-194 0 -295.5 119t-101.5 346zM409 1339v246h235v-246h-235zM804 1339v246h235 v-246h-235z" />
<glyph unicode="&#xfd;" horiz-adv-x="1335" d="M25 1120h358l301 -760l256 760h358l-471 -1226q-71 -187 -165.5 -261.5t-249.5 -74.5h-207v235h112q91 0 132.5 29t64.5 104l10 31zM521 1262l282 376h283l-369 -376h-196z" />
<glyph unicode="&#xfe;" horiz-adv-x="1466" d="M172 -426v1982h358v-600q74 98 164 144.5t207 46.5q207 0 340 -164.5t133 -423.5t-133 -423.5t-340 -164.5q-117 0 -207 46.5t-164 144.5v-588h-358zM530 559q0 -159 61.5 -243.5t176.5 -84.5t175.5 84t60.5 244t-60.5 244t-175.5 84t-176.5 -84.5t-61.5 -243.5z" />
<glyph unicode="&#xff;" horiz-adv-x="1335" d="M25 1120h358l301 -760l256 760h358l-471 -1226q-71 -187 -165.5 -261.5t-249.5 -74.5h-207v235h112q91 0 132.5 29t64.5 104l10 31zM353 1339v246h235v-246h-235zM748 1339v246h235v-246h-235z" />
<glyph unicode="&#x100;" horiz-adv-x="1585" d="M10 0l553 1493h459l553 -1493h-387l-94 272h-602l-95 -272h-387zM477 1683v188h630v-188h-630zM588 549h409l-204 594z" />
<glyph unicode="&#x101;" horiz-adv-x="1382" d="M88 336q0 197 135.5 289t425.5 92h211v28q0 85 -67 124.5t-209 39.5q-115 0 -214 -23t-184 -69v273q115 28 231 42.5t232 14.5q303 0 437.5 -119.5t134.5 -388.5v-639h-361v166q-72 -102 -162 -148.5t-219 -46.5q-174 0 -282.5 101.5t-108.5 263.5zM334 1374v188h630 v-188h-630zM449 354q0 -68 45.5 -106.5t126.5 -38.5q101 0 170 72.5t69 181.5v41h-186q-112 0 -168.5 -38t-56.5 -112z" />
<glyph unicode="&#x102;" horiz-adv-x="1585" d="M10 0l553 1493h459l553 -1493h-387l-94 272h-602l-95 -272h-387zM453 1914h143q11 -70 60.5 -107t132.5 -37t132.5 37t60.5 107h143q-6 -144 -93 -220.5t-243 -76.5t-243 76.5t-93 220.5zM588 549h409l-204 594z" />
<glyph unicode="&#x103;" horiz-adv-x="1382" d="M88 336q0 197 135.5 289t425.5 92h211v28q0 85 -67 124.5t-209 39.5q-115 0 -214 -23t-184 -69v273q115 28 231 42.5t232 14.5q303 0 437.5 -119.5t134.5 -388.5v-639h-361v166q-72 -102 -162 -148.5t-219 -46.5q-174 0 -282.5 101.5t-108.5 263.5zM394 1597h143 q11 -70 60.5 -107t132.5 -37t132.5 37t60.5 107h143q-6 -144 -93 -220.5t-243 -76.5t-243 76.5t-93 220.5zM449 354q0 -68 45.5 -106.5t126.5 -38.5q101 0 170 72.5t69 181.5v41h-186q-112 0 -168.5 -38t-56.5 -112z" />
</font>
</defs>
</svg>
